Люди Икс: Тёмный Феникс / Dark Phoenix (Саймон Кинберг / Simon Kinberg) [2019, США, фантастика, боевик, приключения, BDRip 1080p]

 КиноПоиск

Люди Икс: Тёмный Феникс / Dark Phoenix (Саймон Кинберг / Simon Kinberg) [2019, США, фантастика, боевик, приключения, BDRip 1080p]

Сообщение CObP » 03 сен 2019, 15:05

  • Постеры
  • Скриншоты
Информация о фильме
Название: Люди Икс: Тёмный Феникс
Оригинальное название: Dark Phoenix
Год выпуска: 2019
Жанр: фантастика, боевик, приключения
Режиссер: Саймон Кинберг
В ролях: Джеймс МакЭвой, Майкл Фассбендер, Дженнифер Лоуренс, Николас Холт, Софи Тёрнер, Тай Шеридан, Александра Шипп, Эван Питерс, Коди Смит-МакФи, Джессика Честейн

О фильме: История Джин Грей, которая разворачивается в тот момент, когда героиня превращается в культового Тёмного Феникса. Во время опасной для жизни спасательной миссии в космосе девушка оказывается поражена таинственной космической силой, которая превращает её в одного из самых могущественных мутантов. В борьбе с этой всё более изменчивой мощью и со своими собственными демонами Джин выходит из-под контроля: раскалывает семью Людей Икс и угрожает уничтожить всю нашу планету.

Премьера (мир) 5 июня 2019, ...
Премьера (РФ) 6 июня 2019, «Двадцатый Век Фокс СНГ»




Выпущено: США / Twentieth Century Fox, Bad Hat Harry Productions, Donners' Company
Продолжительность: 01:53:56
Озвучивание: Дублированное [лицензия]
General
Unique ID : 41408157267458377711218462435665809580 (0x1F26EBC6CF0453539390529984FC90AC)
Complete name : C:\Video\Dark.Phoenix.2019.Lic.BDRip.1080p.seleZen.mkv
Format : Matroska
Format version : Version 4
File size : 12.6 GiB
Duration : 1 h 53 min
Overall bit rate : 15.8 Mb/s
Movie name : Dark Phoenix 2019 from селезень
Encoded date : UTC 2019-09-02 08:17:29
Writing application : mkvmerge v36.0.0 ('Is That Jazz?') 64-bit
Writing library : libebml v1.3.9 + libmatroska v1.5.2

Video
ID : 1
Format : AVC
Format/Info : Advanced Video Codec
Format profile : High@L4.1
Format settings : CABAC / 5 Ref Frames
Format settings, CABAC : Yes
Format settings, Reference : 5 frames
Codec ID : V_MPEG4/ISO/AVC
Duration : 1 h 53 min
Bit rate : 14.0 Mb/s
Width : 1 920 pixels
Height : 804 pixels
Display aspect ratio : 2.40:1
Frame rate mode : Constant
Frame rate : 23.976 (24000/1001) FPS
Color space : YUV
Chroma subsampling : 4:2:0
Bit depth : 8 bits
Scan type : Progressive
Bits/(Pixel*Frame) : 0.378
Stream size : 11.1 GiB (88%)
Writing library : x264 core 152 r2851kMod ba24899
Encoding settings : cabac=1 / ref=5 / deblock=1:-3:-3 / analyse=0x3:0x133 / me=umh / subme=11 / psy=1 / fade_compensate=0.00 / psy_rd=1.05:0.00 / mixed_ref=1 / me_range=48 / chroma_me=1 / trellis=2 / 8x8dct=1 / cqm=0 / deadzone=21,11 / fast_pskip=0 / chroma_qp_offset=-2 / threads=24 / lookahead_threads=4 / sliced_threads=0 / nr=0 / decimate=0 / interlaced=0 / bluray_compat=0 / constrained_intra=0 / bframes=8 / b_pyramid=2 / b_adapt=2 / b_bias=0 / direct=3 / weightb=1 / open_gop=0 / weightp=2 / keyint=240 / keyint_min=2 / scenecut=40 / intra_refresh=0 / rc=2pass / mbtree=0 / bitrate=14000 / ratetol=1.0 / qcomp=0.70 / qpmin=0 / qpmax=69 / qpstep=4 / cplxblur=20.0 / qblur=0.5 / ip_ratio=1.30 / pb_ratio=1.20 / aq=3:0.85
Language : English
Default : Yes
Forced : No

Audio #1
ID : 2
Format : DTS
Format/Info : Digital Theater Systems
Codec ID : A_DTS
Duration : 1 h 53 min
Bit rate mode : Constant
Bit rate : 768 kb/s
Channel(s) : 6 channels
Channel layout : C L R Ls Rs LFE
Sampling rate : 48.0 kHz
Frame rate : 93.750 FPS (512 SPF)
Bit depth : 24 bits
Compression mode : Lossy
Stream size : 626 MiB (5%)
Title : Dub [License]
Language : Russian
Default : Yes
Forced : Yes

Audio #2
ID : 3
Format : AC-3
Format/Info : Audio Coding 3
Commercial name : Dolby Digital
Codec ID : A_AC3
Duration : 1 h 53 min
Bit rate mode : Constant
Bit rate : 448 kb/s
Channel(s) : 6 channels
Channel layout : L R C LFE Ls Rs
Sampling rate : 48.0 kHz
Frame rate : 31.250 FPS (1536 SPF)
Bit depth : 16 bits
Compression mode : Lossy
Stream size : 365 MiB (3%)
Title : Dub [License]
Language : Russian
Service kind : Complete Main
Default : No
Forced : No

Audio #3
ID : 4
Format : AC-3
Format/Info : Audio Coding 3
Commercial name : Dolby Digital
Codec ID : A_AC3
Duration : 1 h 53 min
Bit rate mode : Constant
Bit rate : 640 kb/s
Channel(s) : 6 channels
Channel layout : L R C LFE Ls Rs
Sampling rate : 48.0 kHz
Frame rate : 31.250 FPS (1536 SPF)
Bit depth : 16 bits
Compression mode : Lossy
Stream size : 522 MiB (4%)
Title : Original
Language : English
Service kind : Complete Main
Default : No
Forced : No

Text #1
ID : 5
Format : UTF-8
Codec ID : S_TEXT/UTF8
Codec ID/Info : UTF-8 Plain Text
Duration : 1 h 34 min
Bit rate : 0 b/s
Count of elements : 9
Stream size : 371 Bytes (0%)
Title : Forced [License]
Language : Russian
Default : Yes
Forced : Yes

Text #2
ID : 6
Format : UTF-8
Codec ID : S_TEXT/UTF8
Codec ID/Info : UTF-8 Plain Text
Duration : 1 h 52 min
Bit rate : 55 b/s
Count of elements : 1094
Stream size : 46.0 KiB (0%)
Title : Full [License]
Language : Russian
Default : No
Forced : No

Text #3
ID : 7
Format : UTF-8
Codec ID : S_TEXT/UTF8
Codec ID/Info : UTF-8 Plain Text
Duration : 1 h 52 min
Bit rate : 1 b/s
Count of elements : 18
Stream size : 1.03 KiB (0%)
Title : Forced [Enigma]
Language : Russian
Default : No
Forced : No

Text #4
ID : 8
Format : UTF-8
Codec ID : S_TEXT/UTF8
Codec ID/Info : UTF-8 Plain Text
Duration : 1 h 52 min
Bit rate : 63 b/s
Count of elements : 1137
Stream size : 52.9 KiB (0%)
Title : Full [Enigma]
Language : Russian
Default : No
Forced : No

Text #5
ID : 9
Format : UTF-8
Codec ID : S_TEXT/UTF8
Codec ID/Info : UTF-8 Plain Text
Duration : 1 h 52 min
Bit rate : 38 b/s
Count of elements : 1135
Stream size : 31.5 KiB (0%)
Title : Full
Language : English
Default : No
Forced : No

Text #6
ID : 10
Format : UTF-8
Codec ID : S_TEXT/UTF8
Codec ID/Info : UTF-8 Plain Text
Duration : 1 h 53 min
Bit rate : 43 b/s
Count of elements : 1414
Stream size : 36.4 KiB (0%)
Title : SDH
Language : English
Default : No
Forced : No

Menu
00:00:00.000 : en:00:00:00.000
00:03:28.875 : en:00:03:28.875
00:07:34.621 : en:00:07:34.621
00:11:42.201 : en:00:11:42.201
00:15:44.110 : en:00:15:44.110
00:18:37.408 : en:00:18:37.408
00:25:24.481 : en:00:25:24.481
00:31:40.357 : en:00:31:40.357
00:34:19.307 : en:00:34:19.307
00:40:07.447 : en:00:40:07.447
00:44:36.090 : en:00:44:36.090
00:49:07.778 : en:00:49:07.778
00:55:38.168 : en:00:55:38.168
00:58:57.409 : en:00:58:57.409
01:02:57.190 : en:01:02:57.190
01:10:40.111 : en:01:10:40.111
01:13:42.418 : en:01:13:42.418
01:19:33.477 : en:01:19:33.477
01:22:35.701 : en:01:22:35.701
01:25:49.061 : en:01:25:49.061
01:30:38.350 : en:01:30:38.350
01:32:48.188 : en:01:32:48.188
01:37:59.624 : en:01:37:59.624
01:45:01.045 : en:01:45:01.045

Файл
Формат: MKV
Качество: BDRip 1080p
Видео: 14000 kb/s, 1920x804
Звук: Russian: DTS, 768 kb/s (6 ch); AC3, 448 kb/s (6 ch) / English: AC3, 640 kb/s (6 ch)
Субтитры: Russian, English
Размер: 12.6 GB
Аватара пользователя
CObP
Хранитель
 
Раздал: 343.81 ТБ
Скачал: 0 байт
Ратио: Seed.
Сообщения: 2380

Карма: 1396
Зарегистрирован: 11 дек 2010, 10:56
  • Торрент
Автор: CObP Хэш: ---
Добавлен: 03 сен 2019, 15:05 Приватный: Нет (DHT включён)
Статус: Vip аплоад
Размер: 12.6 ГБ (13 530 469 864 байт)
Изменил:
---
Скачали: 10 (Раздающих: 100%)
Причина:
---
Здоровье: 100%
Сидеров: 19 Личеров: 1
Скорость раздачи: 0 байт/сек Скорость скачивания: 0 байт/сек
Последний сидер: 5 минут 22 секунды назад Последний личер: 7 дней 18 часов 26 минут 11 секунд назад
Для скачивания торрента необходимо зарегистрироваться или войти на трекер.

Вернуться в Зарубежные кинофильмы (HDTV)

Кто сейчас на конференции

Сейчас эту тему просматривают: нет зарегистрированных пользователей и гости: 1

Ресурс не предоставляет электронные версии произведений, а занимается лишь коллекционированием и каталогизацией ссылок, присылаемых и публикуемых на форуме нашими читателями. Если вы являетесь правообладателем какого-либо представленного материала и не желаете чтобы ссылка на него находилась в нашем каталоге, свяжитесь с нами и мы незамедлительно удалим её. Файлы для обмена на трекере предоставлены пользователями сайта, и администрация не несёт ответственности за их содержание. Просьба не заливать файлы, защищенные авторскими правами, а также файлы нелегального содержания!
cron