Аквамен 3D / Aquaman 3D (Джеймс Ван / James Wan) [2018, Австралия, США, фантастика, фэнтези, боевик, приключения, BDRip 1080p]

 КиноПоиск

Аквамен 3D / Aquaman 3D (Джеймс Ван / James Wan) [2018, Австралия, США, фантастика, фэнтези, боевик, приключения, BDRip 1080p]

Сообщение CObP » 19 мар 2019, 14:55

  • Постеры
  • Скриншоты
Информация о фильме
Название: Аквамен
Оригинальное название: Aquaman
Год выпуска: 2018
Жанр: фантастика, фэнтези, боевик, приключения
Режиссер: Джеймс Ван
В ролях: Джейсон Момоа, Эмбер Хёрд, Дольф Лундгрен, Николь Кидман, Джули Эндрюс, Патрик Уилсон, Уиллем Дефо, Грэм МакТавиш, Талия Джейд, Джимон Хонсу

О фильме: Артур Карри был сыном работника маяка по имени Том Карри и женщины по имени Атланна. Артур уже в подростковом возрасте демонстрировал невероятную силу и скорость, а также возможность дышать под водой и разговаривать с рыбами. Будучи при смерти, Атланна раскрыла мальчику правду: она была Королевой Атлантиды, находившейся в изгнании, и пообещала, что однажды Артур станет правителем семи морей. Его отец дал ему образование и научил управлять своими возможностями, что в конечном итоге помогло ему стать героем по имени Аквамен.

Премьера (мир) 26 ноября 2018, ...
Премьера (РФ) 13 декабря 2018, «Каро-Премьер»




Выпущено: Австралия, США / DC Comics, DC Entertainment, Panoramic Pictures
Продолжительность: 02:23:21
Озвучивание: Дублированное [лицензия] / Профессиональное (многоголосое) [HDRezka Studio]
General
Unique ID : 196929105373259880216340454831658990413 (0x94272A85440CD766BE23F36644797B4D)
Complete name : J:Aquaman(2018)3D-halfOU(Ash61)Aquaman(2018)3D-halfOU(Ash61).mkv
Format : Matroska
Format version : Version 2
File size : 17.3 GiB
Duration : 2h 23mn
Overall bit rate : 17.3 Mbps
Movie name : Аквамен / Aquaman (2018) in 3D
Encoded date : UTC 2019-03-19 06:14:39
Writing application : mkvmerge v5.8.0 ('No Sleep / Pillow') built on Sep 2 2012 15:37:04
Writing library : libebml v1.2.3 + libmatroska v1.3.0

Video
ID : 1
Format : AVC
Format/Info : Advanced Video Codec
Format profile : High@L4.1
Format settings, CABAC : Yes
Format settings, ReFrames : 4 frames
Codec ID : V_MPEG4/ISO/AVC
Duration : 2h 23mn
Bit rate : 16.0 Mbps
Width : 1 920 pixels
Height : 1 080 pixels
Display aspect ratio : 16:9
Frame rate mode : Constant
Frame rate : 23.976 (24000/1001) fps
Color space : YUV
Chroma subsampling : 4:2:0
Bit depth : 8 bits
Scan type : Progressive
Bits/(Pixel*Frame) : 0.322
Stream size : 15.7 GiB (91%)
Title : BDRip by Ash61
Writing library : x264 core 146 r2538 121396c
Encoding settings : cabac=1 / ref=4 / deblock=1:-3:-3 / analyse=0x3:0x113 / me=umh / subme=10 / psy=1 / psy_rd=1.00:0.00 / mixed_ref=1 / me_range=32 / chroma_me=1 / trellis=2 / 8x8dct=1 / cqm=0 / deadzone=21,11 / fast_pskip=0 / chroma_qp_offset=-2 / threads=12 / lookahead_threads=2 / sliced_threads=0 / nr=0 / decimate=0 / interlaced=0 / bluray_compat=0 / constrained_intra=0 / bframes=9 / b_pyramid=2 / b_adapt=2 / b_bias=0 / direct=3 / weightb=1 / open_gop=0 / weightp=2 / keyint=250 / keyint_min=23 / scenecut=40 / intra_refresh=0 / rc_lookahead=60 / rc=2pass / mbtree=0 / bitrate=16000 / ratetol=1.0 / qcomp=0.70 / qpmin=0 / qpmax=69 / qpstep=4 / cplxblur=20.0 / qblur=0.5 / vbv_maxrate=40000 / vbv_bufsize=30000 / nal_hrd=none / filler=0 / frame-packing=4 / ip_ratio=1.40 / pb_ratio=1.30 / aq=1:0.70
Language : English
Default : Yes
Forced : No

Audio #1
ID : 2
Format : AC-3
Format/Info : Audio Coding 3
Mode extension : CM (complete main)
Format settings, Endianness : Big
Codec ID : A_AC3
Duration : 2h 23mn
Bit rate mode : Constant
Bit rate : 448 Kbps
Channel(s) : 6 channels
Channel positions : Front: L C R, Side: L R, LFE
Sampling rate : 48.0 KHz
Frame rate : 31.250 fps (1536 spf)
Compression mode : Lossy
Stream size : 459 MiB (3%)
Title : Дубляж (BD 3D CEE)
Language : Russian
Default : Yes
Forced : No

Audio #2
ID : 3
Format : AC-3
Format/Info : Audio Coding 3
Mode extension : CM (complete main)
Format settings, Endianness : Big
Codec ID : A_AC3
Duration : 2h 23mn
Bit rate mode : Constant
Bit rate : 192 Kbps
Channel(s) : 2 channels
Channel positions : Front: L R
Sampling rate : 48.0 KHz
Frame rate : 31.250 fps (1536 spf)
Compression mode : Lossy
Stream size : 197 MiB (1%)
Title : Дубляж (iTunes)
Language : Ukrainian
Default : No
Forced : No

Audio #3
ID : 4
Format : AC-3
Format/Info : Audio Coding 3
Mode extension : CM (complete main)
Format settings, Endianness : Big
Codec ID : A_AC3
Duration : 2h 23mn
Bit rate mode : Constant
Bit rate : 640 Kbps
Channel(s) : 6 channels
Channel positions : Front: L C R, Side: L R, LFE
Sampling rate : 48.0 KHz
Frame rate : 31.250 fps (1536 spf)
Compression mode : Lossy
Stream size : 656 MiB (4%)
Title : Original (BD 3D CEE)
Language : English
Default : No
Forced : No

Text #1
ID : 5
Format : UTF-8
Codec ID : S_TEXT/UTF8
Codec ID/Info : UTF-8 Plain Text
Title : Форсированные [ver.Ash61]
Language : Russian
Default : Yes
Forced : No

Text #2
ID : 6
Format : UTF-8
Codec ID : S_TEXT/UTF8
Codec ID/Info : UTF-8 Plain Text
Title : Полные
Language : Russian
Default : No
Forced : No

Text #3
ID : 7
Format : UTF-8
Codec ID : S_TEXT/UTF8
Codec ID/Info : UTF-8 Plain Text
Title : Форсированные
Language : Ukrainian
Default : No
Forced : No

Text #4
ID : 8
Format : UTF-8
Codec ID : S_TEXT/UTF8
Codec ID/Info : UTF-8 Plain Text
Title : Full
Language : English
Default : No
Forced : No

Text #5
ID : 9
Format : UTF-8
Codec ID : S_TEXT/UTF8
Codec ID/Info : UTF-8 Plain Text
Title : SDH (BD 3D CEE)
Language : English
Default : No
Forced : No

Menu
00:00:00.000 : :1
00:11:09.294 : :2
00:22:11.622 : :3
00:30:11.018 : :4
00:40:28.718 : :5
00:50:24.647 : :6
01:01:15.755 : :7
01:08:57.091 : :8
01:21:41.271 : :9
01:34:50.435 : :10
01:39:37.430 : :11
01:49:32.816 : :12
02:01:36.539 : :13
02:10:19.895 : :14

Файл
Формат: MKV (x264)
Качество: BDRip 1080p
Формат 3D: Half OverUnder / Вертикальная анаморфная стереопара
Видео: 16000 kb/s, 1920х1080
Звук: Russian: AC3, 448 kb/s (6 ch) / Ukrainian: AC3, 192 kb/s (2 ch) / English: AC3, 640 kb/s (6 ch)
Субтитры: Russian, Ukrainian, English
Размер: 17.29 GB
Аватара пользователя
CObP
Хранитель
 
Раздал: 330.66 ТБ
Скачал: 0 байт
Ратио: Seed.
Сообщения: 2256

Карма: 1289
Зарегистрирован: 11 дек 2010, 10:56
  • Торрент
Автор: CObP Хэш: ---
Добавлен: 19 мар 2019, 14:55 Приватный: Нет (DHT включён)
Статус: Vip аплоад
Размер: 17.29 ГБ (18 561 594 555 байт)
Изменил:
---
Скачали: 3 (Раздающих: 100%)
Причина:
---
Здоровье: 100%
Сидеров: 4 Личеров: 2
Скорость раздачи: 0 байт/сек Скорость скачивания: 0 байт/сек
Последний сидер: 27 минут 56 секунд назад Последний личер: 15 дней 22 часа 33 минуты 43 секунды назад
Для скачивания торрента необходимо зарегистрироваться или войти на трекер.

Вернуться в Кинофильмы 3D

Кто сейчас на конференции

Сейчас эту тему просматривают: нет зарегистрированных пользователей и гости: 1

cron
Ресурс не предоставляет электронные версии произведений, а занимается лишь коллекционированием и каталогизацией ссылок, присылаемых и публикуемых на форуме нашими читателями. Если вы являетесь правообладателем какого-либо представленного материала и не желаете чтобы ссылка на него находилась в нашем каталоге, свяжитесь с нами и мы незамедлительно удалим её. Файлы для обмена на трекере предоставлены пользователями сайта, и администрация не несёт ответственности за их содержание. Просьба не заливать файлы, защищенные авторскими правами, а также файлы нелегального содержания!
cron