Хан Соло: Звёздные Войны. Истории 3D / Solo: A Star Wars Story 3D (Рон Ховард / Ron Howard) [2018, США, фантастика, фэнтези, боевик, приключения, BDRip 1080p]

 КиноПоиск

Хан Соло: Звёздные Войны. Истории 3D / Solo: A Star Wars Story 3D (Рон Ховард / Ron Howard) [2018, США, фантастика, фэнтези, боевик, приключения, BDRip 1080p]

Сообщение The_Mulder » 18 дек 2018, 00:08

  • Постеры
  • Скриншоты
Информация о фильме
Название: Хан Соло: Звёздные Войны. Истории
Оригинальное название: Solo: A Star Wars Story
Год выпуска: 2018
Жанр: Фантастика, фэнтези, боевик, приключения
Режиссер: Рон Ховард
В ролях: Олден Эренрайк, Йонас Суотамо, Вуди Харрельсон, Эмилия Кларк, Дональд Гловер, Тэнди Ньютон, Фиби Уоллер-Бридж, Пол Беттани, Джон Фавро, Линда Хант

О фильме: Фильм расскажет о похождениях юного космического сорвиголовы Хана Соло и его верного напарника Чубакки и о том, как они стали самыми быстрыми пилотами и самыми хитрыми контрабандистами далёкой Галактики.

Премьера (мир) 10 мая 2018, ...
Премьера (РФ) 24 мая 2018, «WDSSPR»




Выпущено: США, Diprente Films
Продолжительность: 02:14:59
Озвучивание: Дублированное [лицензия]
Примечание: Локализованный видеоряд!
General
Unique ID : 211250251736118631728465406981446814775 (0x9EED518D00E7E867A327C20EC3DFCC37)
Complete name : D:Solo(2018)3D-halfOU(Ash61)[Video.Rus]Solo(2018)3D-halfOU(Ash61)[Video.Rus].mkv
Format : Matroska
Format version : Version 2
File size : 10.3 GiB
Duration : 2h 14mn
Overall bit rate : 10.9 Mbps
Movie name : Хан Соло: Звёздные войны. Истории / Solo: A Star Wars Story (2018) in 3D
Encoded date : UTC 2018-12-16 01:30:56
Writing application : mkvmerge v5.8.0 ('No Sleep / Pillow') built on Sep 2 2012 15:37:04
Writing library : libebml v1.2.3 + libmatroska v1.3.0

Video
ID : 1
Format : AVC
Format/Info : Advanced Video Codec
Format profile : High@L4.1
Format settings, CABAC : Yes
Format settings, ReFrames : 4 frames
Codec ID : V_MPEG4/ISO/AVC
Duration : 2h 14mn
Bit rate : 9 000 Kbps
Width : 1 920 pixels
Height : 1 080 pixels
Display aspect ratio : 16:9
Frame rate mode : Constant
Frame rate : 23.976 (24000/1001) fps
Color space : YUV
Chroma subsampling : 4:2:0
Bit depth : 8 bits
Scan type : Progressive
Bits/(Pixel*Frame) : 0.181
Stream size : 8.27 GiB (80%)
Title : BDRip by Ash61 (Video Rus) [BD 3D CEE]
Writing library : x264 core 146 r2538 121396c
Encoding settings : cabac=1 / ref=4 / deblock=1:-3:-3 / analyse=0x3:0x113 / me=umh / subme=10 / psy=1 / psy_rd=1.00:0.00 / mixed_ref=1 / me_range=32 / chroma_me=1 / trellis=2 / 8x8dct=1 / cqm=0 / deadzone=21,11 / fast_pskip=0 / chroma_qp_offset=-2 / threads=12 / lookahead_threads=3 / sliced_threads=0 / nr=0 / decimate=0 / interlaced=0 / bluray_compat=0 / constrained_intra=0 / bframes=12 / b_pyramid=2 / b_adapt=2 / b_bias=0 / direct=3 / weightb=1 / open_gop=0 / weightp=2 / keyint=250 / keyint_min=23 / scenecut=40 / intra_refresh=0 / rc_lookahead=60 / rc=2pass / mbtree=0 / bitrate=9000 / ratetol=1.0 / qcomp=0.70 / qpmin=0 / qpmax=69 / qpstep=4 / cplxblur=20.0 / qblur=0.5 / vbv_maxrate=40000 / vbv_bufsize=30000 / nal_hrd=none / filler=0 / frame-packing=4 / ip_ratio=1.40 / pb_ratio=1.30 / aq=1:0.70
Language : English
Default : Yes
Forced : No

Audio #1
ID : 2
Format : AC-3
Format/Info : Audio Coding 3
Mode extension : CM (complete main)
Format settings, Endianness : Big
Codec ID : A_AC3
Duration : 2h 14mn
Bit rate mode : Constant
Bit rate : 640 Kbps
Channel(s) : 6 channels
Channel positions : Front: L C R, Side: L R, LFE
Sampling rate : 48.0 KHz
Frame rate : 31.250 fps (1536 spf)
Compression mode : Lossy
Stream size : 617 MiB (6%)
Title : Дубляж (BD 3D CEE)
Language : Russian
Default : Yes
Forced : No

Audio #2
ID : 3
Format : AC-3
Format/Info : Audio Coding 3
Mode extension : CM (complete main)
Format settings, Endianness : Big
Codec ID : A_AC3
Duration : 2h 14mn
Bit rate mode : Constant
Bit rate : 640 Kbps
Channel(s) : 6 channels
Channel positions : Front: L C R, Side: L R, LFE
Sampling rate : 48.0 KHz
Frame rate : 31.250 fps (1536 spf)
Compression mode : Lossy
Stream size : 617 MiB (6%)
Title : Дубляж
Language : Ukrainian
Default : No
Forced : No

Audio #3
ID : 4
Format : AC-3
Format/Info : Audio Coding 3
Mode extension : CM (complete main)
Format settings, Endianness : Big
Codec ID : A_AC3
Duration : 2h 14mn
Bit rate mode : Constant
Bit rate : 640 Kbps
Channel(s) : 6 channels
Channel positions : Front: L C R, Side: L R, LFE
Sampling rate : 48.0 KHz
Frame rate : 31.250 fps (1536 spf)
Compression mode : Lossy
Stream size : 617 MiB (6%)
Title : Original (BD 3D CEE)
Language : English
Default : No
Forced : No

Text #1
ID : 5
Format : UTF-8
Codec ID : S_TEXT/UTF8
Codec ID/Info : UTF-8 Plain Text
Title : Форсированные
Language : Russian
Default : Yes
Forced : No

Text #2
ID : 6
Format : UTF-8
Codec ID : S_TEXT/UTF8
Codec ID/Info : UTF-8 Plain Text
Title : Полные (BD)
Language : Russian
Default : No
Forced : No

Text #3
ID : 7
Format : UTF-8
Codec ID : S_TEXT/UTF8
Codec ID/Info : UTF-8 Plain Text
Title : SDH
Language : Russian
Default : No
Forced : No

Text #4
ID : 8
Format : UTF-8
Codec ID : S_TEXT/UTF8
Codec ID/Info : UTF-8 Plain Text
Title : Форсированные
Language : Ukrainian
Default : No
Forced : No

Text #5
ID : 9
Format : UTF-8
Codec ID : S_TEXT/UTF8
Codec ID/Info : UTF-8 Plain Text
Title : Forced (BD 3D)
Language : English
Default : No
Forced : No

Text #6
ID : 10
Format : UTF-8
Codec ID : S_TEXT/UTF8
Codec ID/Info : UTF-8 Plain Text
Title : Full (extracted from SDH)
Language : Russian
Default : No
Forced : No

Text #7
ID : 11
Format : UTF-8
Codec ID : S_TEXT/UTF8
Codec ID/Info : UTF-8 Plain Text
Title : SDH (BD 3D)
Language : English
Default : No
Forced : No

Menu
00:00:00.000 : : 1. Начало / Opening Credits
00:00:53.844 : : 2. Улицы Кореллии / Streets of Corellia
00:02:10.212 : : 3. Кира / Qi'ra
00:03:53.149 : : 4. Логово "Белых червей" / Den of The White Worms
00:06:00.485 : : 5. Погоня на спидерах / Corellian Speeder Chase
00:09:27.566 : : 6. Космопорт / Coronet Spaceport
00:13:16.044 : : 7. Вербовка / Recruitment
00:14:14.019 : : 8. Поле боя на Мимбане / Mimban Battlefield
00:16:12.261 : : 9. Рота "Не твоё дело" / None-of-Your-Business Company
00:19:45.099 : : 10. Зверь / The Beast
00:22:43.819 : : 11. Бегство с Мимбана / Mimban Escape
00:24:37.267 : : 12. Вандор / Vandor
00:27:00.035 : : 13. Истории у костра / Camfire Stories
00:30:02.925 : : 14. Ограбление конвейэкса / Conveyex Heist
00:32:54.681 : : 15. Нападение мародёров / Marauder Attack
00:39:09.764 : : 16. "Ты обречён на такую жизнь" / "You're in This Life for Good"
00:41:59.224 : : 17. Яхта / The Yacht
00:43:20.179 : : 18. Драйден Вос / Dryden Vos
00:44:32.126 : : 19. Воссоединение / Reunion
00:48:03.755 : : 20. Кримзон Дон / Deal with Crimson Dawn
00:51:58.322 : : 21. Знакомство с Лэндо / The Lodge
00:53:17.527 : : 22. Полный Сабакк / Full Sabacc
00:57:23.523 : : 23. Лэндо и L3 / Lando and L3
01:00:16.778 : : 24. Сокол тысячелетия / Millennium Falcon
01:02:40.882 : : 25. "Тебе лучше пристегнуться" / "Buckle Up, Baby"
01:04:51.262 : : 26. "Люди предсказуемы" / "People Are Predictable"
01:05:29.507 : : 27. Хан и Кира / Han and Qi'ra
01:07:12.027 : : 28. "Я никому не доверяю" / "Trust No One"
01:08:05.914 : : 29. Несовместимы / Not Compatible
01:10:00.112 : : 30. Прибытие на Кессель / Arrival on Kessel
01:12:44.193 : : 31. В шахты / Into the Mines
01:14:40.850 : : 32. Мятеж / Revolt
01:18:30.872 : : 33. Перестрелка на Кесселе / Kessel Shootout
01:23:15.739 : : 34. В Мальстрём / Into the Maelstrom
01:26:32.645 : : 35. Дуга Кесселя / Kessel Run
01:30:33.136 : : 36. Вырваться из утробы / Escaping the Maw
01:35:19.671 : : 37. Саварин / Savareen
01:37:04.859 : : 38. Хороший парень / The Good Guy
01:38:52.801 : : 39. Возвращение мародёров / Marauders Return
01:41:18.529 : : 40. Энфис Нест / Enfys Nest
01:43:02.676 : : 41. "Я выхожу из игры" / One Last Score
01:45:27.820 : : 42. Доставка / The Delivery
01:46:32.176 : : 43. Взрывчатка / Explosive Stuff
01:49:45.996 : : 44. Предательство / Double-Crossings
01:53:33.890 : : 45. Поединок с Драйденом / Duel with Dryden
01:57:13.900 : : 46. Тайный лидер / Secret Leader
01:58:55.127 : : 47. Стычка / Showdown
02:01:34.828 : : 48. Рассвет сопротивления / Rebellion's Dawn
02:03:20.893 : : 49. Реванш Сабакк / Sabacc Rematch
02:06:09.353 : : 50. Финальные титры / End Credits

Файл
Формат: MKV (x264)
Качество: BDRip 1080p
Формат 3D: Half OverUnder / Вертикальная анаморфная стереопара
Видео: 9000 kb/s, 1920х1080
Звук: Russian / English / Ukrainian: AC3, 640 kb/s (6 ch)
Субтитры: Russian, Ukrainian, English
Размер: 10.28 GB
The_Mulder
 
Раздал: 66.35 ТБ
Скачал: 0 байт
Ратио: Seed.
Сообщения: 154

Карма: 354
Зарегистрирован: 29 окт 2016, 16:11
  • Торрент
Автор: The_Mulder Хэш: ---
Добавлен: 18 дек 2018, 00:08 Приватный: Нет (DHT включён)
Статус: Проверен
Размер: 10.28 ГБ (11 036 610 218 байт)
Изменил: CObP (18 дек 2018, 00:48)
Скачали: 5 (Раздающих: 100%)
Причина:
---
Здоровье: 100%
Сидеров: 9 Личеров: 0
Скорость раздачи: 0 байт/сек Скорость скачивания: 0 байт/сек
Последний сидер: 3 месяца 1 день 18 часов 20 минут 49 секунд назад Последний личер: 2 месяца 18 дней 17 часов 47 минут 27 секунд назад
Для скачивания торрента необходимо зарегистрироваться или войти на трекер.

Вернуться в Кинофильмы 3D

Кто сейчас на конференции

Сейчас эту тему просматривают: нет зарегистрированных пользователей и гости: 1

Ресурс не предоставляет электронные версии произведений, а занимается лишь коллекционированием и каталогизацией ссылок, присылаемых и публикуемых на форуме нашими читателями. Если вы являетесь правообладателем какого-либо представленного материала и не желаете чтобы ссылка на него находилась в нашем каталоге, свяжитесь с нами и мы незамедлительно удалим её. Файлы для обмена на трекере предоставлены пользователями сайта, и администрация не несёт ответственности за их содержание. Просьба не заливать файлы, защищенные авторскими правами, а также файлы нелегального содержания!
cron