Мстители: Война бесконечности 3D / Avengers: Infinity War 3D (Энтони Руссо / Anthony Russo, Джо Руссо / Joe Russo) [2018, США, фантастика, фэнтези, боевик, приключения, BDRip 1080p]

 КиноПоиск

Мстители: Война бесконечности 3D / Avengers: Infinity War 3D (Энтони Руссо / Anthony Russo, Джо Руссо / Joe Russo) [2018, США, фантастика, фэнтези, боевик, приключения, BDRip 1080p]

Сообщение CObP » 18 сен 2018, 20:14

  • Постеры
  • Скриншоты
Информация о фильме
Название: Мстители: Война бесконечности
Оригинальное название: Avengers: Infinity War
Год выпуска: 2018
Жанр: Фантастика, фэнтези, боевик, приключения
Режиссер: Энтони Руссо, Джо Руссо
В ролях: Роберт Дауни мл., Крис Хемсворт, Марк Руффало, Крис Эванс, Скарлетт Йоханссон, Дон Чидл, Бенедикт Камбербэтч, Том Холланд (II), Чэдвик Боузмэн, Зои Салдана

О фильме: Пока Мстители и их союзники продолжают защищать мир от различных опасностей, с которыми не смог бы справиться один супергерой, новая угроза возникает из космоса: Танос. Межгалактический тиран преследует цель собрать все шесть Камней Бесконечности — артефакты невероятной силы, с помощью которых можно менять реальность по своему желанию. Всё, с чем Мстители сталкивались ранее, вело к этому моменту — судьба Земли никогда ещё не была столь неопределённой.

Премьера (мир) 23 апреля 2018, ...
Премьера (РФ) 3 мая 2018, «WDSSPR»




Выпущено: США, Marvel Studios
Продолжительность: 02:29:20
Озвучивание: Дублированное [лицензия]
General
Unique ID : 216057823867214323142453701540942323921 (0xA28B3928416C81AB812D6B2C994220D1)
Complete name : D:Avengers3(2018)3D-halfOU(Ash61)Avengers3(2018)3D-halfOU(Ash61).mkv
Format : Matroska
Format version : Version 2
File size : 12.5 GiB
Duration : 2h 29mn
Overall bit rate : 11.9 Mbps
Movie name : Мстители: Война бесконечности / Avengers: Infinity War (2018) in 3D
Encoded date : UTC 2018-09-18 13:23:21
Writing application : mkvmerge v5.8.0 ('No Sleep / Pillow') built on Sep 2 2012 15:37:04
Writing library : libebml v1.2.3 + libmatroska v1.3.0

Video
ID : 1
Format : AVC
Format/Info : Advanced Video Codec
Format profile : High@L4.1
Format settings, CABAC : Yes
Format settings, ReFrames : 4 frames
Codec ID : V_MPEG4/ISO/AVC
Duration : 2h 29mn
Bit rate : 10 000 Kbps
Width : 1 920 pixels
Height : 1 080 pixels
Display aspect ratio : 16:9
Frame rate mode : Constant
Frame rate : 23.976 (24000/1001) fps
Color space : YUV
Chroma subsampling : 4:2:0
Bit depth : 8 bits
Scan type : Progressive
Bits/(Pixel*Frame) : 0.201
Stream size : 10.2 GiB (82%)
Title : BDRip by Ash61
Writing library : x264 core 146 r2538 121396c
Encoding settings : cabac=1 / ref=4 / deblock=1:-3:-3 / analyse=0x3:0x113 / me=umh / subme=10 / psy=1 / psy_rd=1.00:0.00 / mixed_ref=1 / me_range=32 / chroma_me=1 / trellis=2 / 8x8dct=1 / cqm=0 / deadzone=21,11 / fast_pskip=0 / chroma_qp_offset=-2 / threads=12 / lookahead_threads=3 / sliced_threads=0 / nr=0 / decimate=0 / interlaced=0 / bluray_compat=0 / constrained_intra=0 / bframes=10 / b_pyramid=2 / b_adapt=2 / b_bias=0 / direct=3 / weightb=1 / open_gop=0 / weightp=2 / keyint=250 / keyint_min=23 / scenecut=40 / intra_refresh=0 / rc_lookahead=60 / rc=2pass / mbtree=0 / bitrate=10000 / ratetol=1.0 / qcomp=0.70 / qpmin=0 / qpmax=69 / qpstep=4 / cplxblur=20.0 / qblur=0.5 / vbv_maxrate=40000 / vbv_bufsize=30000 / nal_hrd=none / filler=0 / frame-packing=4 / ip_ratio=1.40 / pb_ratio=1.30 / aq=1:0.70
Language : English
Default : Yes
Forced : No

Audio #1
ID : 2
Format : AC-3
Format/Info : Audio Coding 3
Mode extension : CM (complete main)
Format settings, Endianness : Big
Codec ID : A_AC3
Duration : 2h 29mn
Bit rate mode : Constant
Bit rate : 640 Kbps
Channel(s) : 6 channels
Channel positions : Front: L C R, Side: L R, LFE
Sampling rate : 48.0 KHz
Frame rate : 31.250 fps (1536 spf)
Compression mode : Lossy
Stream size : 684 MiB (5%)
Title : Дубляж (BD Eur)
Language : Russian
Default : Yes
Forced : No

Audio #2
ID : 3
Format : AC-3
Format/Info : Audio Coding 3
Mode extension : CM (complete main)
Format settings, Endianness : Big
Codec ID : A_AC3
Duration : 2h 29mn
Bit rate mode : Constant
Bit rate : 640 Kbps
Channel(s) : 6 channels
Channel positions : Front: L C R, Side: L R, LFE
Sampling rate : 48.0 KHz
Frame rate : 31.250 fps (1536 spf)
Compression mode : Lossy
Stream size : 684 MiB (5%)
Title : Дубляж (Hurtom)
Language : Ukrainian
Default : No
Forced : No

Audio #3
ID : 4
Format : AC-3
Format/Info : Audio Coding 3
Mode extension : CM (complete main)
Format settings, Endianness : Big
Codec ID : A_AC3
Duration : 2h 29mn
Bit rate mode : Constant
Bit rate : 640 Kbps
Channel(s) : 6 channels
Channel positions : Front: L C R, Side: L R, LFE
Sampling rate : 48.0 KHz
Frame rate : 31.250 fps (1536 spf)
Compression mode : Lossy
Stream size : 684 MiB (5%)
Title : Original
Language : English
Default : No
Forced : No

Text #1
ID : 5
Format : UTF-8
Codec ID : S_TEXT/UTF8
Codec ID/Info : UTF-8 Plain Text
Title : Форсированные (ver. Ash61)
Language : Russian
Default : Yes
Forced : No

Text #2
ID : 6
Format : UTF-8
Codec ID : S_TEXT/UTF8
Codec ID/Info : UTF-8 Plain Text
Title : Полные
Language : Russian
Default : No
Forced : No

Text #3
ID : 7
Format : UTF-8
Codec ID : S_TEXT/UTF8
Codec ID/Info : UTF-8 Plain Text
Title : SDH
Language : Russian
Default : No
Forced : No

Text #4
ID : 8
Format : UTF-8
Codec ID : S_TEXT/UTF8
Codec ID/Info : UTF-8 Plain Text
Title : Форсированные (Hurtom+)
Language : Ukrainian
Default : No
Forced : No

Text #5
ID : 9
Format : UTF-8
Codec ID : S_TEXT/UTF8
Codec ID/Info : UTF-8 Plain Text
Title : Full
Language : English
Default : No
Forced : No

Text #6
ID : 10
Format : UTF-8
Codec ID : S_TEXT/UTF8
Codec ID/Info : UTF-8 Plain Text
Title : SDH
Language : English
Default : No
Forced : No

Menu
00:00:00.000 : : 1. "Thanos is Coming"
00:11:28.729 : : 2. Infinity Stones
00:18:13.884 : : 3. Fight for the Time Stone
00:27:23.807 : : 4. "Who the Hell are You Guys?"
00:35:48.813 : : 5. Wanda and Vision
00:42:23.541 : : 6. Knowhere
00:54:12.873 : : 7. Avengers Assemble
00:59:36.739 : : 8. "Take the Fight to Him"
01:05:07.152 : : 9. The Soul Stone
01:10:53.666 : : 10. Nidavellir
01:17:06.954 : : 11. Titan
01:24:14.757 : : 12. Vormir
01:31:08.003 : : 13. "Wakanda Forever"
01:42:00.404 : : 14. Stormbreaker
01:45:57.809 : : 15. Titan Confrontation
01:53:04.068 : : 16. "A Vision Situation"
01:58:52.917 : : 17. The Time Stone
02:03:58.180 : : 18. The End Game
02:11:13.282 : : 19. Aftermath
02:17:31.283 : : 20. End Credits

Файл
Формат: MKV (x264)
Качество: BDRip 1080p
Формат 3D: Half OverUnder / Вертикальная анаморфная стереопара
Видео: 10000 kb/s, 1920х1080
Звук: Russian / Ukrainian / English: AC3, 640 kb/s (6 ch)
Субтитры: Russian, Ukrainian, English
Размер: 12.4 GB
Аватара пользователя
CObP
Хранитель
 
Раздал: 279.57 ТБ
Скачал: 0 байт
Ратио: Seed.
Сообщения: 2116

Карма: 1122
Зарегистрирован: 11 дек 2010, 10:56
  • Торрент
Автор: CObP Хэш: ---
Добавлен: 18 сен 2018, 20:14 Приватный: Нет (DHT включён)
Статус: Vip аплоад
Размер: 12.46 ГБ (13 375 890 770 байт)
Изменил:
---
Скачали: 5 (Раздающих: 100%)
Причина:
---
Здоровье: 72%
Сидеров: 8 Личеров: 11
Скорость раздачи: 5.46 КБ/сек Скорость скачивания: 0 байт/сек
Последний сидер: 24 минуты 31 секунду назад Последний личер: 8 часов 33 минуты 24 секунды назад
Для скачивания торрента необходимо зарегистрироваться или войти на трекер.

Вернуться в Кинофильмы 3D

Кто сейчас на конференции

Сейчас эту тему просматривают: нет зарегистрированных пользователей и гости: 1

cron
Ресурс не предоставляет электронные версии произведений, а занимается лишь коллекционированием и каталогизацией ссылок, присылаемых и публикуемых на форуме нашими читателями. Если вы являетесь правообладателем какого-либо представленного материала и не желаете чтобы ссылка на него находилась в нашем каталоге, свяжитесь с нами и мы незамедлительно удалим её. Файлы для обмена на трекере предоставлены пользователями сайта, и администрация не несёт ответственности за их содержание. Просьба не заливать файлы, защищенные авторскими правами, а также файлы нелегального содержания!
cron