Чёрная Пантера 3D / Black Panther 3D (Райан Куглер / Ryan Coogler) [2018, США, фантастика, боевик, приключения, BDRip 1080p]

 КиноПоиск

Чёрная Пантера 3D / Black Panther 3D (Райан Куглер / Ryan Coogler) [2018, США, фантастика, боевик, приключения, BDRip 1080p]

Сообщение CObP » 27 май 2018, 00:49

  • Постеры
  • Скриншоты
Информация о фильме
Название: Чёрная Пантера
Оригинальное название: Black Panther
Год выпуска: 2018
Жанр: Фантастика, боевик, приключения, супергерой
Режиссер: Райан Куглер
В ролях: Чэдвик Боузмэн, Майкл Б. Джордан, Лупита Нионго, Данай Джекесай Гурира, Мартин Фриман, Дэниэл Калуя, Летишиа Райт, Уинстон Дьюк, Стерлинг К. Браун, Анджела Бассетт

О фильме: С первого взгляда можно решить, что Ваканда — обычная территория дикой Африки, но это не так. Здесь, в недрах пустынных земель, скрываются залежи уникального металла, способного поглощать вибрацию. Многие пытались добраться до него, разоряя всё на своём пути и принося смерть аборигенам, но каждый раз таинственный дух саванны — Чёрная Пантера — вставал на защиту угнетённых.

Премьера (мир) 29 января 2018, ...
Премьера (РФ) 26 февраля 2018, «WDSSPR»




Выпущено: США, Marvel Studios Inc., Walt Disney Pictures
Продолжительность: 02:14:33
Озвучивание: Дублированное [лицензия]
General
Unique ID : 232735314137967167425850478453491594954 (0xAF1730E9678500ED98423DB6ABE176CA)
Complete name : D:BlackPanther(2018)3D-halfOU(Ash61)BlackPanther(2018)3D-halfOU(Ash61).mkv
Format : Matroska
Format version : Version 2
File size : 9.84 GiB
Duration : 2h 14mn
Overall bit rate : 10.5 Mbps
Movie name : Чёрная Пантера / Black Panther (2018) in 3D
Encoded date : UTC 2018-05-26 12:58:56
Writing application : mkvmerge v5.8.0 ('No Sleep / Pillow') built on Sep 2 2012 15:37:04
Writing library : libebml v1.2.3 + libmatroska v1.3.0

Video
ID : 1
Format : AVC
Format/Info : Advanced Video Codec
Format profile : High@L4.1
Format settings, CABAC : Yes
Format settings, ReFrames : 4 frames
Codec ID : V_MPEG4/ISO/AVC
Duration : 2h 14mn
Bit rate : 9 000 Kbps
Width : 1 920 pixels
Height : 1 080 pixels
Display aspect ratio : 16:9
Frame rate mode : Constant
Frame rate : 23.976 (24000/1001) fps
Color space : YUV
Chroma subsampling : 4:2:0
Bit depth : 8 bits
Scan type : Progressive
Bits/(Pixel*Frame) : 0.181
Stream size : 8.26 GiB (84%)
Title : BDRip by Ash61
Writing library : x264 core 146 r2538 121396c
Encoding settings : cabac=1 / ref=4 / deblock=1:-3:-3 / analyse=0x3:0x113 / me=umh / subme=10 / psy=1 / psy_rd=1.00:0.00 / mixed_ref=1 / me_range=32 / chroma_me=1 / trellis=2 / 8x8dct=1 / cqm=0 / deadzone=21,11 / fast_pskip=0 / chroma_qp_offset=-2 / threads=12 / lookahead_threads=2 / sliced_threads=0 / nr=0 / decimate=0 / interlaced=0 / bluray_compat=0 / constrained_intra=0 / bframes=9 / b_pyramid=2 / b_adapt=2 / b_bias=0 / direct=3 / weightb=1 / open_gop=0 / weightp=2 / keyint=250 / keyint_min=23 / scenecut=40 / intra_refresh=0 / rc_lookahead=60 / rc=2pass / mbtree=0 / bitrate=9000 / ratetol=1.0 / qcomp=0.70 / qpmin=0 / qpmax=69 / qpstep=4 / cplxblur=20.0 / qblur=0.5 / vbv_maxrate=40000 / vbv_bufsize=30000 / nal_hrd=none / filler=0 / frame-packing=4 / ip_ratio=1.40 / pb_ratio=1.30 / aq=1:0.70
Language : English
Default : Yes
Forced : No

Audio #1
ID : 2
Format : AC-3
Format/Info : Audio Coding 3
Mode extension : CM (complete main)
Format settings, Endianness : Big
Codec ID : A_AC3
Duration : 2h 14mn
Bit rate mode : Constant
Bit rate : 640 Kbps
Channel(s) : 6 channels
Channel positions : Front: L C R, Side: L R, LFE
Sampling rate : 48.0 KHz
Frame rate : 31.250 fps (1536 spf)
Compression mode : Lossy
Stream size : 616 MiB (6%)
Title : Дубляж - BD 3D EUR
Language : Russian
Default : Yes
Forced : No

Audio #2
ID : 3
Format : AC-3
Format/Info : Audio Coding 3
Mode extension : CM (complete main)
Format settings, Endianness : Big
Codec ID : A_AC3
Duration : 2h 14mn
Bit rate mode : Constant
Bit rate : 192 Kbps
Channel(s) : 2 channels
Channel positions : Front: L R
Sampling rate : 48.0 KHz
Frame rate : 31.250 fps (1536 spf)
Compression mode : Lossy
Stream size : 185 MiB (2%)
Title : Дубляж - Line [моно]
Language : Ukrainian
Default : No
Forced : No

Audio #3
ID : 4
Format : AC-3
Format/Info : Audio Coding 3
Mode extension : CM (complete main)
Format settings, Endianness : Big
Codec ID : A_AC3
Duration : 2h 14mn
Bit rate mode : Constant
Bit rate : 640 Kbps
Channel(s) : 6 channels
Channel positions : Front: L C R, Side: L R, LFE
Sampling rate : 48.0 KHz
Frame rate : 31.250 fps (1536 spf)
Compression mode : Lossy
Stream size : 616 MiB (6%)
Title : Original - BD 3D EUR
Language : English
Default : No
Forced : No

Text #1
ID : 5
Format : UTF-8
Codec ID : S_TEXT/UTF8
Codec ID/Info : UTF-8 Plain Text
Title : Форсированные
Language : Russian
Default : Yes
Forced : No

Text #2
ID : 6
Format : UTF-8
Codec ID : S_TEXT/UTF8
Codec ID/Info : UTF-8 Plain Text
Title : Полные
Language : Russian
Default : No
Forced : No

Text #3
ID : 7
Format : UTF-8
Codec ID : S_TEXT/UTF8
Codec ID/Info : UTF-8 Plain Text
Title : SDH
Language : Russian
Default : No
Forced : No

Text #4
ID : 8
Format : UTF-8
Codec ID : S_TEXT/UTF8
Codec ID/Info : UTF-8 Plain Text
Title : Форсированные
Language : Ukrainian
Default : No
Forced : No

Text #5
ID : 9
Format : UTF-8
Codec ID : S_TEXT/UTF8
Codec ID/Info : UTF-8 Plain Text
Title : Forced
Language : English
Default : No
Forced : No

Text #6
ID : 10
Format : UTF-8
Codec ID : S_TEXT/UTF8
Codec ID/Info : UTF-8 Plain Text
Title : Full
Language : English
Default : No
Forced : No

Text #7
ID : 11
Format : UTF-8
Codec ID : S_TEXT/UTF8
Codec ID/Info : UTF-8 Plain Text
Title : SDH
Language : English
Default : No
Forced : No

Menu
00:00:00.000 : : 1. История Ваканды / The Story of Home
00:06:56.291 : : 2. Наследование трона / Succession to the Throne
00:12:02.805 : : 3. "Теперь ты король" / "Time to be King"
00:19:12.360 : : 4. "Да начнётся поединок!" / "Let the Challenge Begin"
00:28:32.961 : : 5. Измерение предков / The Ancestral Plane
00:33:11.698 : : 6. Экстрадиция / Extradition
00:40:57.497 : : 7. Миссия в казино / Casino Mission
00:48:34.036 : : 8. Погоня в Пусане / Busan Car Chase
00:53:46.098 : : 9. Допрос / Interrogation
01:01:57.339 : : 10. Жертвы / Sacrifices
01:08:33.026 : : 11. Права крови / Blood Rights
01:16:46.769 : : 12. Ритуальный поединок / Ritual Combat
01:22:24.022 : : 13. "Сожгите всё!" / "Burn It All"
01:31:21.434 : : 14. Земля Джабари / Jabariland
01:41:15.361 : : 15. Две пантеры / Two Panthers
01:50:56.483 : : 16. Битва за Ваканду / The Battle for Wakanda
01:59:16.941 : : 17. Новая Ваканда / A New Wakanda
02:02:43.648 : : 18. Финальные титры / End Credits

Файл
Формат: MKV (x264)
Качество: BDRip 1080p
Формат 3D: Half OverUnder / Вертикальная анаморфная стереопара
Видео: 9000 kb/s, 1920х1080
Звук: Russian / English: AC3, 640 kb/s (6 ch) / Ukrainian: AC3, 192 kb/s (2 ch)
Субтитры: Russian, Ukrainian, English
Размер: 9.84 GB
Аватара пользователя
CObP
Хранитель
 
Раздал: 272.41 ТБ
Скачал: 0 байт
Ратио: Seed.
Сообщения: 2094

Карма: 1102
Зарегистрирован: 11 дек 2010, 10:56
  • Торрент
Автор: CObP Хэш: ---
Добавлен: 27 май 2018, 00:49 Приватный: Нет (DHT включён)
Статус: Vip аплоад
Размер: 9.84 ГБ (10 570 112 855 байт)
Изменил:
---
Скачали: 2 (Раздающих: 100%)
Причина:
---
Здоровье: 100%
Сидеров: 11 Личеров: 4
Скорость раздачи: 0 байт/сек Скорость скачивания: 0 байт/сек
Последний сидер: 1 месяц 17 дней 8 часов 25 минут 48 секунд назад Последний личер: 1 месяц 21 день 21 час 47 минут 38 секунд назад
Для скачивания торрента необходимо зарегистрироваться или войти на трекер.

Вернуться в Кинофильмы 3D

Кто сейчас на конференции

Сейчас эту тему просматривают: нет зарегистрированных пользователей и гости: 1

cron
Ресурс не предоставляет электронные версии произведений, а занимается лишь коллекционированием и каталогизацией ссылок, присылаемых и публикуемых на форуме нашими читателями. Если вы являетесь правообладателем какого-либо представленного материала и не желаете чтобы ссылка на него находилась в нашем каталоге, свяжитесь с нами и мы незамедлительно удалим её. Файлы для обмена на трекере предоставлены пользователями сайта, и администрация не несёт ответственности за их содержание. Просьба не заливать файлы, защищенные авторскими правами, а также файлы нелегального содержания!
cron