Звездные войны: Последние джедаи 3D / Star Wars: Episode VIII - The Last Jedi 3D (Райан Джонсон / Rian Johnson) [2017, США, Фантастика, фэнтези, боевик, приключения, BDRip 1080p] Локализованная версия

 КиноПоиск

Звездные войны: Последние джедаи 3D / Star Wars: Episode VIII - The Last Jedi 3D (Райан Джонсон / Rian Johnson) [2017, США, Фантастика, фэнтези, боевик, приключения, BDRip 1080p] Локализованная версия

Сообщение CObP » 28 апр 2018, 13:54

  • Постеры
  • Скриншоты
Информация о фильме
Название: Звёздные войны: Последние джедаи
Оригинальное название: Star Wars: The Last Jedi
Год выхода: 2017
Жанр: фантастика, фэнтези, боевик, приключения
Режиссер: Райан Джонсон
В ролях: Марк Хэмилл, Кэрри Фишер, Адам Драйвер, Дэйзи Ридли, Джон Бойега, Оскар Айзек, Энди Серкис, Лупита Нионго, Донал Глисон, Энтони Дэниелс

О фильме: Новая история о противостоянии света и тьмы, добра и зла начинается после гибели Хана Соло. В Галактике, где Первый Орден и Сопротивление яростно сражаются друг с другом в войне, героиня Рей пробудила в себе Силу. Но что произойдет, когда она встретится с единственным оставшимся в живых рыцарем-джедаем — Люком Скайуокером?

Премьера (мир) 9 декабря 2017, ...
Премьера (РФ) 14 декабря 2017, «WDSSPR»




Выпущено: США / Lucasfilm, Ram Bergman Productions, Walt Disney Pictures
Продолжительность: 02:31:52
Озвучивание: Дублированное [лицензия]
General
Unique ID : 244197386157470116615253107004454189835 (0xB7B6B4B18C705F42977525812263BB0B)
Complete name : D:StarWars-8(2017)3D-halfOU(Ash61)[Video.Rus]StarWars-8(2017)3D-halfOU(Ash61)[Video.Rus].mkv
Format : Matroska
Format version : Version 2
File size : 14.6 GiB
Duration : 2h 31mn
Overall bit rate : 13.8 Mbps
Movie name : Звёздные войны: Последние джедаи / Star Wars: Episode VIII - The Last Jedi (2017) in 3D
Encoded date : UTC 2018-04-28 02:01:26
Writing application : mkvmerge v5.8.0 ('No Sleep / Pillow') built on Sep 2 2012 15:37:04
Writing library : libebml v1.2.3 + libmatroska v1.3.0

Video
ID : 1
Format : AVC
Format/Info : Advanced Video Codec
Format profile : High@L4.1
Format settings, CABAC : Yes
Format settings, ReFrames : 4 frames
Codec ID : V_MPEG4/ISO/AVC
Duration : 2h 31mn
Bit rate : 12.5 Mbps
Width : 1 920 pixels
Height : 1 080 pixels
Display aspect ratio : 16:9
Frame rate mode : Constant
Frame rate : 23.976 (24000/1001) fps
Color space : YUV
Chroma subsampling : 4:2:0
Bit depth : 8 bits
Scan type : Progressive
Bits/(Pixel*Frame) : 0.251
Stream size : 13.0 GiB (89%)
Title : BDRip by Ash61
Writing library : x264 core 146 r2538 121396c
Encoding settings : cabac=1 / ref=4 / deblock=1:-3:-3 / analyse=0x3:0x113 / me=umh / subme=10 / psy=1 / psy_rd=1.00:0.00 / mixed_ref=1 / me_range=32 / chroma_me=1 / trellis=2 / 8x8dct=1 / cqm=0 / deadzone=21,11 / fast_pskip=0 / chroma_qp_offset=-2 / threads=12 / lookahead_threads=3 / sliced_threads=0 / nr=0 / decimate=0 / interlaced=0 / bluray_compat=0 / constrained_intra=0 / bframes=12 / b_pyramid=2 / b_adapt=2 / b_bias=0 / direct=3 / weightb=1 / open_gop=0 / weightp=2 / keyint=250 / keyint_min=23 / scenecut=40 / intra_refresh=0 / rc_lookahead=60 / rc=2pass / mbtree=0 / bitrate=12500 / ratetol=1.0 / qcomp=0.70 / qpmin=0 / qpmax=69 / qpstep=4 / cplxblur=20.0 / qblur=0.5 / vbv_maxrate=40000 / vbv_bufsize=30000 / nal_hrd=none / filler=0 / frame-packing=4 / ip_ratio=1.40 / pb_ratio=1.30 / aq=1:0.70
Language : English
Default : Yes
Forced : No

Audio #1
ID : 2
Format : AC-3
Format/Info : Audio Coding 3
Mode extension : CM (complete main)
Format settings, Endianness : Big
Codec ID : A_AC3
Duration : 2h 31mn
Bit rate mode : Constant
Bit rate : 640 Kbps
Channel(s) : 6 channels
Channel positions : Front: L C R, Side: L R, LFE
Sampling rate : 48.0 KHz
Frame rate : 31.250 fps (1536 spf)
Compression mode : Lossy
Stream size : 695 MiB (5%)
Title : Дубляж (BD 3D CEE)
Language : Russian
Default : Yes
Forced : No

Audio #2
ID : 3
Format : AC-3
Format/Info : Audio Coding 3
Mode extension : CM (complete main)
Format settings, Endianness : Big
Codec ID : A_AC3
Duration : 2h 31mn
Bit rate mode : Constant
Bit rate : 640 Kbps
Channel(s) : 6 channels
Channel positions : Front: L C R, Side: L R, LFE
Sampling rate : 48.0 KHz
Frame rate : 31.250 fps (1536 spf)
Compression mode : Lossy
Stream size : 695 MiB (5%)
Title : Original (BD 3D CEE)
Language : English
Default : No
Forced : No

Menu
00:00:00.000 : : 1. Начало / Opening Logo
00:00:18.644 : : 2. Последние джедаи / The Last Jedi
00:01:45.731 : : 3. Эвакуация / Resistance Evacuation
00:03:11.817 : : 4. По атакует / Poe Attacks
00:07:43.296 : : 5. Бомбардировщики / Bombing Run
00:12:48.434 : : 6. Пробуждение Финна / Finn Awakens
00:13:44.574 : : 7. Отказ Люка / Luke's Refusal
00:16:29.280 : : 8. Упрёк Сноука / Snoke's Rebuke
00:19:59.281 : : 9. Жизнь на острове / Island Life
00:22:51.370 : : 10. "Время джедаев прошло" / "Time for the Jedi to End"
00:26:04.980 : : 11. "Пилоты совершили подвиг" / "Dead Heroes. No Leaders"
00:27:22.850 : : 12. Нападение Первого Ордена / First Order Ambush
00:31:24.758 : : 13. Спасение / Survival
00:32:54.681 : : 14. Люк на "Соколе" / Falcon at Night
00:35:27.667 : : 15. Вице-адмирал Холдо / Vice Admiral Holdo
00:38:11.498 : : 16. Финн знакомится с Роуз / Finn Meets Rose
00:41:53.428 : : 17. Тайный сговор / A Conspiracy Forms
00:44:29.542 : : 18. Рей и Кайло / Force Connection
00:46:51.475 : : 19. Учение о Силе / Lessons in the Force
00:51:41.932 : : 20. Разговор продолжается / Reconnection
00:53:50.060 : : 21. Канто-Байт / Arrival at Canto Bight
00:55:41.505 : : 22. Начало гонки / The Race Begins
00:57:39.581 : : 23. Тренировка со световым мечом / Lightsaber Training
00:59:16.636 : : 24. Урок истории от Люка / Luke's History Lesson
01:02:05.847 : : 25. Флот несёт потери / The Shrinking Fleet
01:03:07.701 : : 26. Встреча с ДиДжеем / Meeting DJ
01:05:41.729 : : 27. В хлеву / Inside the Stables
01:07:03.478 : : 28. Побег фавьеров / Fathier Escape
01:10:25.721 : : 29. Урок истории от Кайло / Kylo's History Lesson
01:13:30.323 : : 30. Зеркальная пещера / The Mirror Cave
01:17:43.450 : : 31. Рей против Люка / Rey vs. Luke
01:20:53.057 : : 32. Старый друг / An Old Friend
01:24:17.970 : : 33. Сделка / Making the Deal
01:26:23.220 : : 34. По возражает Холдо / Poe Confronts Holdo
01:27:59.524 : : 35. Следующий ход / Plotting Next Moves
01:30:49.361 : : 36. Внутри мега-разрушителя / Inside the Mega-Destroyer
01:32:54.569 : : 37. Мятеж / Reversals
01:35:53.706 : : 38. Покинуть корабль! / Abandon Ship
01:37:10.616 : : 39. Рей противостоит Сноуку / Rey Faces Snoke
01:39:12.864 : : 40. Тьма растёт / Darkness Grows
01:42:07.663 : : 41. Выбор Кайло / Kylo's Choice
01:45:03.714 : : 42. Преторианская гвардия / Praetorian Duel
01:49:35.694 : : 43. Жертва Холдо / Holdo's Sacrifice
01:52:20.609 : : 44. Хаос в ангаре / Chaos in the Hangar
01:56:04.749 : : 45. Встреча на Крейте / Reunion on Crait
01:58:52.083 : : 46. Битва на Крейте / The Battle of Crait
02:03:11.134 : : 47. Стенобитное орудие / Siege Cannon
02:06:39.759 : : 48. Мастер Скайуокер / Master Skywalker
02:11:43.604 : : 49. "Поднимать камни" / "Lifting Rocks"
02:15:12.104 : : 50. Закат / Sunset
02:20:16.700 : : 51. Сопротивление живо / The Resistance Continues
02:23:39.694 : : 52. Финальные титры / End Credits

Файл
Формат: MKV (x264)
Качество: BDRip 1080p
Формат 3D: Half OverUnder / Вертикальная анаморфная стереопара
Видео: 12500 kb/s, 1920х1080
Звук: Russian / English: AC3, 640 kb/s (6 ch)
Субтитры: Russian, English
Размер: 14.62 GB
Аватара пользователя
CObP
Хранитель
 
Раздал: 268.49 ТБ
Скачал: 0 байт
Ратио: Seed.
Сообщения: 2061

Карма: 1088
Зарегистрирован: 11 дек 2010, 10:56
  • Торрент
Автор: CObP Хэш: ---
Добавлен: 28 апр 2018, 13:54 Приватный: Нет (DHT включён)
Статус: Vip аплоад
Размер: 14.62 ГБ (15 695 903 598 байт)
Изменил:
---
Скачали: 7 (Раздающих: 100%)
Причина:
---
Здоровье: 100%
Сидеров: 41 Личеров: 2
Скорость раздачи: 0 байт/сек Скорость скачивания: 0 байт/сек
Последний сидер: 24 дня 1 час 27 минут 22 секунды назад Последний личер: 1 месяц 9 дней 1 час 51 минуту 59 секунд назад
Для скачивания торрента необходимо зарегистрироваться или войти на трекер.

Вернуться в Кинофильмы 3D

Кто сейчас на конференции

Сейчас эту тему просматривают: нет зарегистрированных пользователей и гости: 1

cron
Ресурс не предоставляет электронные версии произведений, а занимается лишь коллекционированием и каталогизацией ссылок, присылаемых и публикуемых на форуме нашими читателями. Если вы являетесь правообладателем какого-либо представленного материала и не желаете чтобы ссылка на него находилась в нашем каталоге, свяжитесь с нами и мы незамедлительно удалим её. Файлы для обмена на трекере предоставлены пользователями сайта, и администрация не несёт ответственности за их содержание. Просьба не заливать файлы, защищенные авторскими правами, а также файлы нелегального содержания!
cron