Три билборда на границе Эббинга, Миссури / Three Billboards Outside Ebbing, Missouri (Мартин МакДона / Martin McDonagh) [2017, Великобритания, США, драма, комедия, криминал, BDRip 720p]

 КиноПоиск

Три билборда на границе Эббинга, Миссури / Three Billboards Outside Ebbing, Missouri (Мартин МакДона / Martin McDonagh) [2017, Великобритания, США, драма, комедия, криминал, BDRip 720p]

Сообщение CObP » 11 мар 2018, 22:34

  • Постеры
  • Скриншоты
Информация о фильме
Название: Три билборда на границе Эббинга, Миссури
Оригинальное название: Three Billboards Outside Ebbing, Missouri
Год выхода: 2017
Жанр: драма, комедия, криминал
Режиссер: Мартин МакДона
В ролях: Вуди Харрельсон, Фрэнсис МакДорманд, Сэм Рокуэлл, Калеб Лэндри Джонс, Керри Кондон, Алехандро Барриос, Джейсон Редфорд, Даррел Бритт-Гибсон, Эбби Корниш, Рия Мэй Этвуд

О фильме: Спустя несколько месяцев после убийства дочери Милдред Хейс преступники так и не найдены. Отчаявшаяся женщина решается на смелый шаг, арендуя на въезде в город три биллборда с посланием к авторитетному главе полиции Уильяму Уиллоуби. Когда в ситуацию оказывается втянут еще и заместитель шерифа, инфантильный маменькин сынок со склонностью к насилию, офицер Диксон, борьба между Милдред и властями города только усугубляется.

Премьера (мир) 4 сентября 2017, ...
Премьера (РФ) 1 февраля 2018, «Двадцатый Век Фокс СНГ»




Выпущено: Великобритания, США / Blueprint Pictures
Продолжительность: 01:55:00
Озвучивание: Профессиональное (двухголосое) [Кубик в кубе]
General
Unique ID : 192123252992026598717053953679957189065 (0x908997B44F08DE72B7E548823F0061C9)
Complete name : D:\Фильмы\Three.Billboards.Outside.Ebbing.Missouri.2017.720p.BluRay.DD5.1-CasStudio.mkv
Format : Matroska
Format version : Version 4 / Version 2
File size : 7.21 GiB
Duration : 1 h 55 min
Overall bit rate : 8 944 kb/s
Movie name : Three Billboards Outside Ebbing, Missouri (2017) - release by messafan for CasStudio
Encoded date : UTC 2018-03-10 22:48:19
Writing application : mkvmerge v6.7.0 ('Back to the Ground') 64bit built on Jan 8 2014 15:10:52
Writing library : libebml v1.3.0 + libmatroska v1.4.1

Video
ID : 1
Format : AVC
Format/Info : Advanced Video Codec
Format profile : High@L4.1
Format settings, CABAC : Yes
Format settings, ReFrames : 12 frames
Codec ID : V_MPEG4/ISO/AVC
Duration : 1 h 55 min
Bit rate : 7 486 kb/s
Width : 1 280 pixels
Height : 536 pixels
Display aspect ratio : 2.40:1
Frame rate mode : Constant
Frame rate : 23.976 (24000/1001) FPS
Color space : YUV
Chroma subsampling : 4:2:0
Bit depth : 8 bits
Scan type : Progressive
Bits/(Pixel*Frame) : 0.455
Stream size : 6.03 GiB (84%)
Writing library : x264 core 148 r2705+54 9f484c1 t_mod_Custom [8-bit@all X86_64]
Encoding settings : cabac=1 / ref=12 / deblock=1:-3:-3 / analyse=0x3:0x133 / me=umh / subme=10 / psy=1 / fade_compensate=0.00 / psy_rd=1.00:0.00 / mixed_ref=1 / me_range=32 / chroma_me=1 / trellis=2 / 8x8dct=1 / cqm=0 / deadzone=21,11 / fast_pskip=0 / chroma_qp_offset=-2 / threads=6 / lookahead_threads=1 / sliced_threads=0 / nr=0 / decimate=0 / interlaced=0 / bluray_compat=0 / constrained_intra=0 / fgo=0 / bframes=8 / b_pyramid=2 / b_adapt=2 / b_bias=0 / direct=3 / weightb=1 / open_gop=0 / weightp=2 / keyint=250 / keyint_min=23 / scenecut=40 / intra_refresh=0 / rc=crf / mbtree=0 / crf=15.0000 / qcomp=0.60 / qpmin=0:0:0 / qpmax=69:69:69 / qpstep=4 / ip_ratio=1.20 / pb_ratio=1.10 / aq=3:0.80 / aq-sensitivity=10.00 / aq-factor=1.00:1.00:1.00 / aq2=0 / aq3=0 / zones=24,572,crf=13.8/5482,5725,b=1.6/5880,6097,b=1.6/6355,6983,b=1.6/7085,7192,b=1.6/7244,7266,b=1.6/8969,9079,crf=14/46457,46515,b=1.7/46592,46709,b=1.7/46827,47882,b=1.7/68779,68807,b=1.5/70157,70352,b=1.5/70529,70939,b=1.5/73481,73583,crf=14/76767,77387crf=14/82666,82786,crf=14/102047,102614,b=1.6/103748,103800,b=1.6/103849,103896,b=1.6/105194,105288,b=1.7/105330,105756,b=1.7/118044,118151,b=1.7/118241,118422,b=1.7/118512,118629,b=1.7/118727,118788,b=1.7/118884,119037,b=1.7/145571,145830,b=1.5/146002,146117,b=1.5/157143,157664,b=1.3/159126,165934,b=0.6
Language : English
Default : Yes
Forced : No

Audio #1
ID : 2
Format : AC-3
Format/Info : Audio Coding 3
Mode extension : CM (complete main)
Format settings, Endianness : Big
Codec ID : A_AC3
Duration : 1 h 55 min
Bit rate mode : Constant
Bit rate : 640 kb/s
Channel(s) : 6 channels
Channel positions : Front: L C R, Side: L R, LFE
Sampling rate : 48.0 kHz
Frame rate : 31.250 FPS (1536 spf)
Bit depth : 16 bits
Compression mode : Lossy
Stream size : 528 MiB (7%)
Title : KvK DD5.1 @ 640kbps
Language : Russian
Default : Yes
Forced : No

Audio #2
ID : 3
Format : AC-3
Format/Info : Audio Coding 3
Mode extension : CM (complete main)
Format settings, Endianness : Big
Codec ID : A_AC3
Duration : 1 h 55 min
Bit rate mode : Constant
Bit rate : 640 kb/s
Channel(s) : 6 channels
Channel positions : Front: L C R, Side: L R, LFE
Sampling rate : 48.0 kHz
Frame rate : 31.250 FPS (1536 spf)
Bit depth : 16 bits
Compression mode : Lossy
Stream size : 528 MiB (7%)
Title : English DD5.1 @ 640kbps
Language : English
Default : No
Forced : No

Text
ID : 4
Format : UTF-8
Codec ID : S_TEXT/UTF8
Codec ID/Info : UTF-8 Plain Text
Title : Eng sub
Language : English
Default : No
Forced : No

Menu
00:00:00.000 : :00:00:00.000
00:05:42.092 : :00:05:42.092
00:08:56.911 : :00:08:56.911
00:12:50.019 : :00:12:50.019
00:19:46.644 : :00:19:46.644
00:23:43.547 : :00:23:43.547
00:27:36.363 : :00:27:36.363
00:31:35.769 : :00:31:35.769
00:35:08.690 : :00:35:08.690
00:40:54.827 : :00:40:54.827
00:44:35.715 : :00:44:35.715
00:49:18.789 : :00:49:18.789
00:55:35.916 : :00:55:35.916
00:59:56.134 : :00:59:56.134
01:04:09.888 : :01:04:09.888
01:10:55.293 : :01:10:55.293
01:15:36.699 : :01:15:36.699
01:23:08.734 : :01:23:08.734
01:27:24.489 : :01:27:24.489
01:35:49.702 : :01:35:49.702
01:40:32.693 : :01:40:32.693
01:44:02.194 : :01:44:02.194
01:46:56.910 : :01:46:56.910
01:49:55.005 : :01:49:55.005

Файл
Формат: MKV (x264)
Качество: BDRip 720p
Видео: 7500 kb/s, 1280x536
Звук: Russian / English: AC3, 640 kb/s (6 ch)
Субтитры: English
Размер: 7.21 GB
Аватара пользователя
CObP
Хранитель
 
Раздал: 266.72 ТБ
Скачал: 0 байт
Ратио: Seed.
Сообщения: 2040

Карма: 1074
Зарегистрирован: 11 дек 2010, 10:56
  • Торрент
Автор: CObP Хэш: ---
Добавлен: 11 мар 2018, 22:31 Приватный: Нет (DHT включён)
Статус: Vip аплоад
Размер: 7.21 ГБ (7 737 898 925 байт)
Изменил:
---
Скачали: 7 (Раздающих: 100%)
Причина:
---
Здоровье: 100%
Сидеров: 50 Личеров: 0
Скорость раздачи: 0 байт/сек Скорость скачивания: 0 байт/сек
Последний сидер: 1 месяц 24 дня 2 часа 10 минут 27 секунд назад Последний личер: 3 месяца 21 день 5 часов 43 минуты 6 секунд назад
Для скачивания торрента необходимо зарегистрироваться или войти на трекер.

Вернуться в Зарубежные кинофильмы (HDTV)

Кто сейчас на конференции

Сейчас эту тему просматривают: нет зарегистрированных пользователей и гости: 1

Ресурс не предоставляет электронные версии произведений, а занимается лишь коллекционированием и каталогизацией ссылок, присылаемых и публикуемых на форуме нашими читателями. Если вы являетесь правообладателем какого-либо представленного материала и не желаете чтобы ссылка на него находилась в нашем каталоге, свяжитесь с нами и мы незамедлительно удалим её. Файлы для обмена на трекере предоставлены пользователями сайта, и администрация не несёт ответственности за их содержание. Просьба не заливать файлы, защищенные авторскими правами, а также файлы нелегального содержания!
cron