Бегущий по лезвию 2049 3D / Blade Runner 2049 3D (Дени Вильнёв / Denis Villeneuve) [2017, США, Великобритания, Венгрия, Канада, Фантастика, Триллер, Драма, BDRip 1080p]

 КиноПоиск

Бегущий по лезвию 2049 3D / Blade Runner 2049 3D (Дени Вильнёв / Denis Villeneuve) [2017, США, Великобритания, Венгрия, Канада, Фантастика, Триллер, Драма, BDRip 1080p]

Сообщение CObP » 06 янв 2018, 22:25

  • Постеры
  • Скриншоты
Информация о фильме
Название: Бегущий по лезвию 2049
Оригинальное название: Blade Runner 2049
Год выхода: 2017
Жанр: фантастика, триллер
Режиссер: Дени Вильнёв
В ролях: Райан Гослинг, Харрисон Форд, Ана де Армас, Сильвия Хукс, Робин Райт, Маккензи Дэвис, Карла Юри, Ленни Джеймс, Дэйв Батиста, Джаред Лето

О фильме: В недалеком будущем мир населен людьми и репликантами, созданными выполнять самую тяжелую работу. Работа офицера полиции Кей — держать репликантов под контролем в условиях нарастающего напряжения… Пока он случайно не становится обладателем секретной информации, которая ставит под угрозу существование всего человечества. Желая найти ключ к разгадке, Кей решает разыскать Рика Декарда, бывшего офицера специального подразделения полиции Лос-Анджелеса, который бесследно исчез много лет назад.

Премьера (мир) 3 октября 2017, ...
Премьера (РФ) 5 октября 2017, «WDSSPR»




Выпущено: США, Великобритания, Канада / 16:14 Entertainment, Alcon Entertainment, Columbia Pictures
Продолжительность: 02:43:27
Озвучивание: Дублированное [лицензия]
General
Unique ID : 242991672347871166322087578357216556375 (0xB6CE7E69C08CAAF6B7C8FF1F6E6FB557)
Complete name : D:BladeRunner2049(2017)3D-halfOU(Ash61)BladeRunner2049(2017)3D-halfOU(Ash61).mkv
Format : Matroska
Format version : Version 2
File size : 10.8 GiB
Duration : 2h 43mn
Overall bit rate : 9 475 Kbps
Movie name : Бегущий по лезвию 2049 / Blade Runner 2049 (2017) in 3D
Encoded date : UTC 2018-01-06 12:23:02
Writing application : mkvmerge v5.8.0 ('No Sleep / Pillow') built on Sep 2 2012 15:37:04
Writing library : libebml v1.2.3 + libmatroska v1.3.0

Video
ID : 1
Format : AVC
Format/Info : Advanced Video Codec
Format profile : High@L4.1
Format settings, CABAC : Yes
Format settings, ReFrames : 4 frames
Codec ID : V_MPEG4/ISO/AVC
Duration : 2h 43mn
Bit rate : 8 000 Kbps
Width : 1 920 pixels
Height : 1 080 pixels
Display aspect ratio : 16:9
Frame rate mode : Constant
Frame rate : 23.976 (24000/1001) fps
Color space : YUV
Chroma subsampling : 4:2:0
Bit depth : 8 bits
Scan type : Progressive
Bits/(Pixel*Frame) : 0.161
Stream size : 8.92 GiB (82%)
Title : BDRip by Ash61
Writing library : x264 core 146 r2538 121396c
Encoding settings : cabac=1 / ref=4 / deblock=1:-3:-3 / analyse=0x3:0x113 / me=umh / subme=10 / psy=1 / psy_rd=1.00:0.00 / mixed_ref=1 / me_range=32 / chroma_me=1 / trellis=2 / 8x8dct=1 / cqm=0 / deadzone=21,11 / fast_pskip=0 / chroma_qp_offset=-2 / threads=12 / lookahead_threads=3 / sliced_threads=0 / nr=0 / decimate=0 / interlaced=0 / bluray_compat=0 / constrained_intra=0 / bframes=10 / b_pyramid=2 / b_adapt=2 / b_bias=0 / direct=3 / weightb=1 / open_gop=0 / weightp=2 / keyint=250 / keyint_min=23 / scenecut=40 / intra_refresh=0 / rc_lookahead=60 / rc=2pass / mbtree=0 / bitrate=8000 / ratetol=1.0 / qcomp=0.70 / qpmin=0 / qpmax=69 / qpstep=4 / cplxblur=20.0 / qblur=0.5 / vbv_maxrate=40000 / vbv_bufsize=30000 / nal_hrd=none / filler=0 / frame-packing=4 / ip_ratio=1.40 / pb_ratio=1.30 / aq=1:0.70
Language : English
Default : Yes
Forced : No

Audio #1
ID : 2
Format : AC-3
Format/Info : Audio Coding 3
Mode extension : CM (complete main)
Format settings, Endianness : Big
Codec ID : A_AC3
Duration : 2h 43mn
Bit rate mode : Constant
Bit rate : 640 Kbps
Channel(s) : 6 channels
Channel positions : Front: L C R, Side: L R, LFE
Sampling rate : 48.0 KHz
Frame rate : 31.250 fps (1536 spf)
Compression mode : Lossy
Stream size : 748 MiB (7%)
Title : Дубляж - BD Eur
Language : Russian
Default : Yes
Forced : No

Audio #2
ID : 3
Format : AC-3
Format/Info : Audio Coding 3
Mode extension : CM (complete main)
Format settings, Endianness : Big
Codec ID : A_AC3
Duration : 2h 43mn
Bit rate mode : Constant
Bit rate : 192 Kbps
Channel(s) : 2 channels
Channel positions : Front: L R
Sampling rate : 48.0 KHz
Frame rate : 31.250 fps (1536 spf)
Compression mode : Lossy
Stream size : 224 MiB (2%)
Title : Дубляж - iTunes
Language : Ukrainian
Default : No
Forced : No

Audio #3
ID : 4
Format : AC-3
Format/Info : Audio Coding 3
Mode extension : CM (complete main)
Format settings, Endianness : Big
Codec ID : A_AC3
Duration : 2h 43mn
Bit rate mode : Constant
Bit rate : 640 Kbps
Channel(s) : 6 channels
Channel positions : Front: L C R, Side: L R, LFE
Sampling rate : 48.0 KHz
Frame rate : 31.250 fps (1536 spf)
Compression mode : Lossy
Stream size : 748 MiB (7%)
Title : Original
Language : English
Default : No
Forced : No

Text #1
ID : 5
Format : UTF-8
Codec ID : S_TEXT/UTF8
Codec ID/Info : UTF-8 Plain Text
Title : Форсированные [расширенные]
Language : Russian
Default : Yes
Forced : No

Text #2
ID : 6
Format : UTF-8
Codec ID : S_TEXT/UTF8
Codec ID/Info : UTF-8 Plain Text
Title : Полные
Language : Russian
Default : No
Forced : No

Text #3
ID : 7
Format : UTF-8
Codec ID : S_TEXT/UTF8
Codec ID/Info : UTF-8 Plain Text
Title : Форсированные [расширенные]
Language : Ukrainian
Default : No
Forced : No

Text #4
ID : 8
Format : UTF-8
Codec ID : S_TEXT/UTF8
Codec ID/Info : UTF-8 Plain Text
Title : Полные
Language : Ukrainian
Default : No
Forced : No

Text #5
ID : 9
Format : UTF-8
Codec ID : S_TEXT/UTF8
Codec ID/Info : UTF-8 Plain Text
Title : Full
Language : English
Default : No
Forced : No

Menu
00:00:00.000 : :1
00:12:36.172 : :2
00:23:29.279 : :3
00:37:00.885 : :4
00:42:50.317 : :5
00:49:24.503 : :6
00:58:35.552 : :7
01:04:10.679 : :8
01:15:47.292 : :9
01:25:12.479 : :10
01:36:15.060 : :11
01:50:55.104 : :12
02:01:36.872 : :13
02:08:40.377 : :14
02:16:42.485 : :15
02:27:46.729 : :16

Файл
Формат: MKV
Качество: BDRip 1080p
Формат 3D: Half OverUnder / Вертикальная анаморфная стереопара
Видео: 8000 kb/s, 1920х1080p
Звук: Russian / English: AC3, 640 kb/s (6 ch) / Ukrainian: AC3, 192 kb/s (2 ch)
Субтитры: Russian, Ukrainian, English
Размер: 10.82 GB
Аватара пользователя
CObP
Хранитель
 
Раздал: 281.63 ТБ
Скачал: 0 байт
Ратио: Seed.
Сообщения: 2116

Карма: 1122
Зарегистрирован: 11 дек 2010, 10:56
  • Торрент
Автор: CObP Хэш: ---
Добавлен: 06 янв 2018, 22:25 Приватный: Нет (DHT включён)
Статус: Vip аплоад
Размер: 10.82 ГБ (11 616 835 117 байт)
Изменил:
---
Скачали: 8 (Раздающих: 100%)
Причина:
---
Здоровье: 100%
Сидеров: 23 Личеров: 2
Скорость раздачи: 0 байт/сек Скорость скачивания: 0 байт/сек
Последний сидер: 8 месяцев 29 дней 8 часов 7 минут 40 секунд назад Последний личер: 9 дней 6 часов 35 минут 47 секунд назад
Для скачивания торрента необходимо зарегистрироваться или войти на трекер.

Вернуться в Кинофильмы 3D

Кто сейчас на конференции

Сейчас эту тему просматривают: нет зарегистрированных пользователей и гости: 1

cron
Ресурс не предоставляет электронные версии произведений, а занимается лишь коллекционированием и каталогизацией ссылок, присылаемых и публикуемых на форуме нашими читателями. Если вы являетесь правообладателем какого-либо представленного материала и не желаете чтобы ссылка на него находилась в нашем каталоге, свяжитесь с нами и мы незамедлительно удалим её. Файлы для обмена на трекере предоставлены пользователями сайта, и администрация не несёт ответственности за их содержание. Просьба не заливать файлы, защищенные авторскими правами, а также файлы нелегального содержания!
cron