Сделано в Америке / American Made (Даг Лайман / Doug Liman) [2017, США, боевик, триллер, драма, комедия, криминал, биография, история, BDRip 1080p]

 КиноПоиск

Сделано в Америке / American Made (Даг Лайман / Doug Liman) [2017, США, боевик, триллер, драма, комедия, криминал, биография, история, BDRip 1080p]

Сообщение CObP » 16 дек 2017, 02:02

  • Постеры
  • Скриншоты
Информация о фильме
Название: Сделано в Америке
Оригинальное название: American Made
Год выхода: 2017
Жанр: боевик, триллер, драма, комедия, криминал, биография, история
Режиссер: Даг Лайман
В ролях: Том Круз, Донал Глисон, Сара Райт, Джесси Племонс, Калеб Лэндри Джонс, Лола Кёрк, Джейма Мейс, Алехандро Эдда, Бенито Мартинес, Э. Роджер Митчелл

О фильме: Он был самым юным пилотом Боинга 747 в США, а уже через несколько лет стал одним из богатейших людей в Америке. Его стиль жизни был столь же экстремальным, как и его бизнес. Закрытые приемы, роскошные блондинки, крутые тачки и рисковые сделки. Он обладал талантом делать деньги из воздуха.

Премьера (мир) 18 августа 2017, ...
Премьера (РФ) 12 октября 2017, «UPI»




Выпущено: США / Cross Creek Pictures, Imagine Entertainment, Quadrant Pictures, Vendian Entertainment
Продолжительность: 01:54:58
Озвучивание: Дублированное [лицензия]
General
Unique ID : 177175901734292537443081842399751312197 (0x854AD6639B7F23B585BD6D33586A1345)
Complete name : G:\VideoSSD\American.Made.2017.DD.BDRip.1080p.ExKinoRay.mkv
Format : Matroska
Format version : Version 4 / Version 2
File size : 10.7 GiB
Duration : 1 h 54 min
Overall bit rate : 13.4 Mb/s
Movie name : American Made from ExKinoRay
Encoded date : UTC 2017-12-15 20:17:01
Writing application : mkvmerge v18.0.0 ('Apricity') 64-bit
Writing library : libebml v1.3.5 + libmatroska v1.4.8

Video
ID : 1
Format : AVC
Format/Info : Advanced Video Codec
Format profile : High@L4.1
Format settings : CABAC / 4 Ref Frames
Format settings, CABAC : Yes
Format settings, RefFrames : 4 frames
Codec ID : V_MPEG4/ISO/AVC
Duration : 1 h 54 min
Bit rate : 11.5 Mb/s
Width : 1 920 pixels
Height : 1 036 pixels
Display aspect ratio : 1.85:1
Frame rate mode : Constant
Frame rate : 23.976 (24000/1001) FPS
Color space : YUV
Chroma subsampling : 4:2:0
Bit depth : 8 bits
Scan type : Progressive
Bits/(Pixel*Frame) : 0.241
Stream size : 9.23 GiB (86%)
Writing library : x264 core 148 r2705 3f5ed56
Encoding settings : cabac=1 / ref=4 / deblock=1:-3:-3 / analyse=0x3:0x133 / me=umh / subme=11 / psy=1 / psy_rd=1.05:0.05 / mixed_ref=1 / me_range=48 / chroma_me=1 / trellis=2 / 8x8dct=1 / cqm=0 / deadzone=21,11 / fast_pskip=0 / chroma_qp_offset=-3 / threads=32 / lookahead_threads=4 / sliced_threads=0 / nr=0 / decimate=0 / interlaced=0 / bluray_compat=0 / constrained_intra=0 / bframes=10 / b_pyramid=2 / b_adapt=2 / b_bias=0 / direct=3 / weightb=1 / open_gop=0 / weightp=2 / keyint=240 / keyint_min=23 / scenecut=40 / intra_refresh=0 / rc_lookahead=50 / rc=2pass / mbtree=0 / bitrate=11500 / ratetol=1.0 / qcomp=0.60 / qpmin=0 / qpmax=69 / qpstep=4 / cplxblur=20.0 / qblur=0.5 / vbv_maxrate=50000 / vbv_bufsize=62500 / nal_hrd=none / filler=0 / ip_ratio=1.40 / pb_ratio=1.30 / aq=3:0.80
Language : English
Default : Yes
Forced : No

Audio #1
ID : 2
Format : DTS
Format/Info : Digital Theater Systems
Mode : 16
Format settings, Endianness : Big
Codec ID : A_DTS
Duration : 1 h 54 min
Bit rate mode : Constant
Bit rate : 768 kb/s
Channel(s) : 6 channels
Channel positions : Front: L C R, Side: L R, LFE
Sampling rate : 48.0 kHz
Frame rate : 93.750 FPS (512 SPF)
Bit depth : 24 bits
Compression mode : Lossy
Stream size : 632 MiB (6%)
Title : Dub
Language : Russian
Default : Yes
Forced : No

Audio #2
ID : 3
Format : AC-3
Format/Info : Audio Coding 3
Format settings, Endianness : Big
Codec ID : A_AC3
Duration : 1 h 54 min
Bit rate mode : Constant
Bit rate : 448 kb/s
Channel(s) : 6 channels
Channel positions : Front: L C R, Side: L R, LFE
Sampling rate : 48.0 kHz
Frame rate : 31.250 FPS (1536 SPF)
Bit depth : 16 bits
Compression mode : Lossy
Stream size : 368 MiB (3%)
Title : Dub
Language : Russian
Service kind : Complete Main
Default : No
Forced : No

Audio #3
ID : 4
Format : AC-3
Format/Info : Audio Coding 3
Format settings, Endianness : Big
Codec ID : A_AC3
Duration : 1 h 54 min
Bit rate mode : Constant
Bit rate : 640 kb/s
Channel(s) : 6 channels
Channel positions : Front: L C R, Side: L R, LFE
Sampling rate : 48.0 kHz
Frame rate : 31.250 FPS (1536 SPF)
Bit depth : 16 bits
Compression mode : Lossy
Stream size : 526 MiB (5%)
Title : Original
Language : English
Service kind : Complete Main
Default : No
Forced : No

Text #1
ID : 5
Format : UTF-8
Codec ID : S_TEXT/UTF8
Codec ID/Info : UTF-8 Plain Text
Duration : 1 h 53 min
Bit rate : 3 b/s
Count of elements : 86
Stream size : 3.26 KiB (0%)
Title : Forced
Language : Russian
Default : Yes
Forced : No

Text #2
ID : 6
Format : UTF-8
Codec ID : S_TEXT/UTF8
Codec ID/Info : UTF-8 Plain Text
Duration : 1 h 53 min
Bit rate : 85 b/s
Count of elements : 1508
Stream size : 71.2 KiB (0%)
Title : Full
Language : Russian
Default : No
Forced : No

Text #3
ID : 7
Format : UTF-8
Codec ID : S_TEXT/UTF8
Codec ID/Info : UTF-8 Plain Text
Duration : 1 h 45 min
Bit rate : 58 b/s
Count of elements : 1515
Stream size : 45.5 KiB (0%)
Title : Full
Language : English
Default : No
Forced : No

Text #4
ID : 8
Format : UTF-8
Codec ID : S_TEXT/UTF8
Codec ID/Info : UTF-8 Plain Text
Duration : 1 h 45 min
Bit rate : 68 b/s
Count of elements : 1766
Stream size : 52.9 KiB (0%)
Title : SDH
Language : English
Default : No
Forced : No

Menu
00:00:00.000 : en:Chapter 01
00:06:00.318 : en:Chapter 02
00:10:42.516 : en:Chapter 03
00:14:36.500 : en:Chapter 04
00:21:19.611 : en:Chapter 05
00:27:25.226 : en:Chapter 06
00:33:47.692 : en:Chapter 07
00:41:02.585 : en:Chapter 08
00:46:16.023 : en:Chapter 09
00:51:57.114 : en:Chapter 10
00:54:59.713 : en:Chapter 11
00:59:58.177 : en:Chapter 12
01:07:29.837 : en:Chapter 13
01:13:06.507 : en:Chapter 14
01:17:12.878 : en:Chapter 15
01:23:21.329 : en:Chapter 16
01:26:16.713 : en:Chapter 17
01:33:34.483 : en:Chapter 18
01:38:39.455 : en:Chapter 19
01:46:16.953 : en:Chapter 20

Файл
Формат: MKV
Качество: BDRip 1080p
Видео: 11.500 kb/s, 1920x1036
Звук: Russian: DTS, 756 kb/s (6 ch); AC3, 448 kb/s (6 ch) / English: AC3, 640 kb/s (6 ch)
Субтитры: Russian, English
Размер: 10.73 GB
Аватара пользователя
CObP
Хранитель
 
Раздал: 236.23 ТБ
Скачал: 0 байт
Ратио: Seed.
Сообщения: 1931

Карма: 858
Зарегистрирован: 11 дек 2010, 10:56
  • Торрент
Автор: CObP Хэш: ---
Добавлен: 16 дек 2017, 02:02 Приватный: Нет (DHT включён)
Статус: Vip аплоад
Размер: 10.73 ГБ (11 518 125 003 байт)
Изменил:
---
Скачали: 11 (Раздающих: 100%)
Причина:
---
Здоровье: 100%
Сидеров: 196 Личеров: 2
Скорость раздачи: 1.15 КБ/сек Скорость скачивания: 0 байт/сек
Последний сидер: 24 минуты 18 секунд назад Последний личер: 12 дней 8 часов 15 минут 25 секунд назад
Для скачивания торрента необходимо зарегистрироваться или войти на трекер.

Вернуться в Зарубежные кинофильмы (HDTV)

Кто сейчас на конференции

Сейчас эту тему просматривают: нет зарегистрированных пользователей и гости: 1

Ресурс не предоставляет электронные версии произведений, а занимается лишь коллекционированием и каталогизацией ссылок, присылаемых и публикуемых на форуме нашими читателями. Если вы являетесь правообладателем какого-либо представленного материала и не желаете чтобы ссылка на него находилась в нашем каталоге, свяжитесь с нами и мы незамедлительно удалим её. Файлы для обмена на трекере предоставлены пользователями сайта, и администрация не несёт ответственности за их содержание. Просьба не заливать файлы, защищенные авторскими правами, а также файлы нелегального содержания!
cron