Ледокол (Николай Хомерики) [2016, Россия, драма, BDRip 1080p]

 КиноПоиск

Ледокол (Николай Хомерики) [2016, Россия, драма, BDRip 1080p]

Сообщение CObP » 09 дек 2016, 14:53

  • Постеры
  • Скриншоты
Название: Ледокол
Год выхода: 2016
Жанр: драма
Режиссер: Николай Хомерики
В ролях: Пётр Фёдоров, Сергей Пускепалис, Анна Михалкова, Ольга Филимонова, Александр Яценко, Александр Паль, Виталий Хаев, Алексей Барабаш, Дмитрий Муляр, Артур Чиргадзе

О фильме: Основано на реальных событиях. 1985 год. Навстречу ледоколу «Михаил Громов» движется огромный айсберг. Уходя от столкновения с ним, судно попадает в ледовый плен и оказывается в вынужденном дрейфе вблизи побережья Антарктиды. Вокруг зловещая тишина и жуткий холод. Горючее на исходе… Нервы на пределе… И даже если можно было бы уйти — деваться все равно некуда. У командования ледокола нет права на ошибку. Одно неверное решение — и тяжелые льды раздавят судно…

Премьера (мир) 4 ноября 2016, ...
Премьера (РФ) 20 октября 2016, «Наше Кино»




Выпущено: Россия / Профит
Продолжительность: 02:03:53
Озвучивание: Оригинал [лицензия]
Общее
Уникальный идентификатор : 183954543141714232761619016058922632409 (0x8A645B36C1B388F9BA9A9312599C84D9)
Полное имя : D:\Загрузки\Ledokol.2016.x264.BDRip.(1080p).OlLandGroup.mkv
Формат : Matroska
Версия формата : Version 2
Размер файла : 10,2 Гбайт
Продолжительность : 2 ч. 3 м.
Общий поток : 11,7 Мбит/сек
Название фильма : Ледокол.2016.Rip by: ollan
Дата кодирования : UTC 2016-12-09 09:07:26
Программа кодирования : mkvmerge v5.6.0 ('Kenya Kane') built on May 27 2012 16:44:04
Библиотека кодирования : libebml v1.2.3 + libmatroska v1.3.0
Attachements : Cover - Ledokol..png

Видео
Идентификатор : 1
Формат : AVC
Формат/Информация : Advanced Video Codec
Профиль формата : High@L4.1
Параметр CABAC формата : Да
Параметр ReFrames формата : 5 кадров
Идентификатор кодека : V_MPEG4/ISO/AVC
Продолжительность : 2 ч. 3 м.
Битрейт : 9577 Кбит/сек
Ширина : 1920 пикселей
Высота : 808 пикселей
Соотношение сторон : 2,40:1
Режим частоты кадров : Постоянный
Частота кадров : 24,000 кадра/сек
Цветовое пространство : YUV
Субдискретизация насыщенности : 4:2:0
Битовая глубина : 8 бит
Тип развёртки : Прогрессивная
Бит/(Пиксели*Кадры) : 0.257
Размер потока : 8,09 Гбайт (80%)
Библиотека кодирования : x264 core 146 r2538 121396c
Настройки программы : cabac=1 / ref=5 / deblock=1:-3:-3 / analyse=0x3:0x133 / me=umh / subme=11 / psy=1 / psy_rd=0.03:0.10 / mixed_ref=1 / me_range=48 / chroma_me=1 / trellis=2 / 8x8dct=1 / cqm=0 / deadzone=21,11 / fast_pskip=0 / chroma_qp_offset=-2 / threads=12 / lookahead_threads=3 / sliced_threads=0 / nr=0 / decimate=0 / interlaced=0 / bluray_compat=0 / constrained_intra=0 / bframes=10 / b_pyramid=2 / b_adapt=2 / b_bias=0 / direct=3 / weightb=1 / open_gop=0 / weightp=2 / keyint=240 / keyint_min=23 / scenecut=40 / intra_refresh=0 / rc_lookahead=40 / rc=2pass / mbtree=0 / bitrate=9577 / ratetol=1.0 / qcomp=0.60 / qpmin=0 / qpmax=69 / qpstep=4 / cplxblur=20.0 / qblur=0.5 / vbv_maxrate=50000 / vbv_bufsize=62500 / nal_hrd=none / filler=0 / ip_ratio=1.40 / pb_ratio=1.30 / aq=1:1.00
Язык : Russian
Default : Да
Forced : Нет

Аудио #1
Идентификатор : 2
Формат : AC-3
Формат/Информация : Audio Coding 3
Расширение режима : CM (complete main)
Параметр Endianness формата : Big
Идентификатор кодека : A_AC3
Продолжительность : 2 ч. 3 м.
Вид битрейта : Постоянный
Битрейт : 640 Кбит/сек
Каналы : 6 каналов
Расположение каналов : Front: L C R, Side: L R, LFE
Частота : 48,0 КГц
Частота кадров : 31,250 кадров/сек (1536 spf)
Метод сжатия : С потерями
Размер потока : 567 Мбайт (5%)
Заголовок : Лицензия
Язык : Russian
Default : Да
Forced : Нет

Аудио #2
Идентификатор : 3
Формат : DTS
Формат/Информация : Digital Theater Systems
Режим : 16
Параметр Endianness формата : Big
Идентификатор кодека : A_DTS
Продолжительность : 2 ч. 3 м.
Вид битрейта : Постоянный
Битрейт : 1509 Кбит/сек
Каналы : 6 каналов
Расположение каналов : Front: L C R, Side: L R, LFE
Частота : 48,0 КГц
Частота кадров : 93,750 кадра/сек (512 spf)
Битовая глубина : 24 бит
Метод сжатия : С потерями
Размер потока : 1,31 Гбайт (13%)
Заголовок : Лицензия
Язык : Russian
Default : Нет
Forced : Нет

Меню
00:00:00.000 : ru:Chapter 01
00:01:27.666 : ru:Chapter 02
00:14:46.833 : ru:Chapter 03
00:29:43.208 : ru:Chapter 04
00:43:48.375 : ru:Chapter 05
01:00:09.125 : ru:Chapter 06
01:14:15.625 : ru:Chapter 07
01:29:17.625 : ru:Chapter 08
01:47:28.041 : ru:Chapter 09

Файл
Формат: MKV (x264)
Качество: BDRip 1080p
Видео: 9577 kb/s, 1920x808
Звук: AC3, 640 kb/s (6 ch); DTS, 1509 kb/s (6 ch)
Размер: 10.15 GB
Аватара пользователя
CObP
Хранитель
 
Раздал: 260.01 ТБ
Скачал: 0 байт
Ратио: Seed.
Сообщения: 2019

Карма: 1029
Зарегистрирован: 11 дек 2010, 10:56
  • Торрент
Автор: CObP Хэш: ---
Добавлен: 09 дек 2016, 14:53 Приватный: Нет (DHT включён)
Статус: Vip аплоад
Размер: 10.15 ГБ (10 903 327 958 байт)
Изменил:
---
Скачали: 6 (Раздающих: 100%)
Причина:
---
Здоровье: 100%
Сидеров: 33 Личеров: 1
Скорость раздачи: 0 байт/сек Скорость скачивания: 0 байт/сек
Последний сидер: 2 часа 10 минут 30 секунд назад Последний личер: 8 месяцев 6 дней 15 часов 3 минуты назад
Для скачивания торрента необходимо зарегистрироваться или войти на трекер.

Вернуться в Наше кино (HDTV)

Кто сейчас на конференции

Сейчас эту тему просматривают: нет зарегистрированных пользователей и гости: 1

Ресурс не предоставляет электронные версии произведений, а занимается лишь коллекционированием и каталогизацией ссылок, присылаемых и публикуемых на форуме нашими читателями. Если вы являетесь правообладателем какого-либо представленного материала и не желаете чтобы ссылка на него находилась в нашем каталоге, свяжитесь с нами и мы незамедлительно удалим её. Файлы для обмена на трекере предоставлены пользователями сайта, и администрация не несёт ответственности за их содержание. Просьба не заливать файлы, защищенные авторскими правами, а также файлы нелегального содержания!
cron