Головоломка / Inside Out (Пит Доктер / Pete Docter, Роналдо Дель Кармен / Ronnie Del Carmen) [2015, США, мультфильм, драма, комедия, семейный, BDRip 1080p]

 КиноПоиск

Головоломка / Inside Out (Пит Доктер / Pete Docter, Роналдо Дель Кармен / Ronnie Del Carmen) [2015, США, мультфильм, драма, комедия, семейный, BDRip 1080p]

Сообщение CObP » 30 окт 2015, 14:00

  • Постеры
  • Скриншоты
Информация о фильме
Название: Головоломка
Оригинальное название: Inside Out
Год выхода: 2015
Жанр: мультфильм, драма, комедия, семейный
Режиссер: Пит Доктер, Роналдо Дель Кармен
В ролях: Льюис Блэк, Минди Кейлинг, Билл Хейдер, Эми Полер, Филлис Смит, Ричард Кайнд, Кейтлин Диас, Дайан Лэйн, Кайл МакЛоклен, Пола Паундстон

О фильме: Райли - обычная 11-летняя школьница, и, как у каждого из нас, ее поведение определяют пять базовых эмоций: Радость, Печаль, Страх, Гнев и Брезгливость. Эмоции живут в сознании девочки и каждый день помогают ей справляться с проблемами, руководя всеми ее поступками. До поры до времени эмоции живут дружно, но вдруг оказывается, что Райли и ее родителям предстоит переезд из небольшого уютного городка в шумный и людный мегаполис. Каждая из эмоций считает, что именно она лучше прочих знает, что нужно делать в этой непростой ситуации, и в голове у девочки наступает полная неразбериха. Чтобы наладить жизнь в большом городе, освоиться в новой школе и подружиться с одноклассниками, эмоциям Райли предстоит снова научиться работать сообща.

Премьера (мир) 18 мая 2015, ...
Премьера (РФ) 18 июня 2015, «WDSSPR»



Выпущено: США / Pixar Animation Studios, Walt Disney Pictures
Продолжительность: 01:34:50
Озвучивание: Дублированное [лицензия]
Примечание: Русский локализированный видеоряд!
Общее
Уникальный идентификатор : 243366083872806382688744144987031270672 (0xB7169A53957B7E48B19F570E42E2F510)
Полное имя : Inside.Out.2015.BDRip.1080p.mkv
Формат : Matroska
Версия формата : Version 2
Размер файла : 8,19 Гбайт
Продолжительность : 1 ч. 34 м.
Общий поток : 12,4 Мбит/сек
Дата кодирования : UTC 2015-10-29 21:53:00
Программа кодирования : mkvmerge v7.9.0 ('Birds') 64bit
Библиотека кодирования : libebml v1.3.1 + libmatroska v1.4.2

Видео
Идентификатор : 1
Формат : AVC
Формат/Информация : Advanced Video Codec
Профиль формата : High@L4.1
Параметр CABAC формата : Да
Параметр ReFrames формата : 4 кадра
Идентификатор кодека : V_MPEG4/ISO/AVC
Продолжительность : 1 ч. 34 м.
Битрейт : 9855 Кбит/сек
Ширина : 1920 пикселей
Высота : 1080 пикселей
Соотношение сторон : 16:9
Режим частоты кадров : Постоянный
Частота кадров : 23,976 кадра/сек
Цветовое пространство : YUV
Субдискретизация насыщенности : 4:2:0
Битовая глубина : 8 бит
Тип развёртки : Прогрессивная
Бит/(Пиксели*Кадры) : 0.198
Размер потока : 6,35 Гбайт (78%)
Библиотека кодирования : x264 core 148 r2597 e86f3a1
Настройки программы : cabac=1 / ref=4 / deblock=1:-3:-3 / analyse=0x3:0x113 / me=umh / subme=10 / psy=1 / psy_rd=1.00:0.00 / mixed_ref=1 / me_range=32 / chroma_me=1 / trellis=2 / 8x8dct=1 / cqm=0 / deadzone=21,11 / fast_pskip=0 / chroma_qp_offset=-2 / threads=12 / lookahead_threads=1 / sliced_threads=0 / nr=0 / decimate=0 / interlaced=0 / bluray_compat=0 / constrained_intra=0 / bframes=9 / b_pyramid=2 / b_adapt=1 / b_bias=0 / direct=3 / weightb=1 / open_gop=1 / weightp=2 / keyint=240 / keyint_min=23 / scenecut=40 / intra_refresh=0 / rc_lookahead=40 / rc=2pass / mbtree=0 / bitrate=9855 / ratetol=1.0 / qcomp=0.60 / qpmin=0 / qpmax=69 / qpstep=4 / cplxblur=20.0 / qblur=0.5 / vbv_maxrate=50000 / vbv_bufsize=62500 / nal_hrd=none / filler=0 / ip_ratio=1.40 / pb_ratio=1.30 / aq=3:0.80
Язык : English
Default : Да
Forced : Нет

Аудио #1
Идентификатор : 2
Формат : AC-3
Формат/Информация : Audio Coding 3
Расширение режима : CM (complete main)
Параметр Endianness формата : Big
Идентификатор кодека : A_AC3
Продолжительность : 1 ч. 34 м.
Вид битрейта : Постоянный
Битрейт : 640 Кбит/сек
Каналы : 6 каналов
Расположение каналов : Front: L C R, Side: L R, LFE
Частота : 48,0 КГц
Метод сжатия : С потерями
Размер потока : 434 Мбайт (5%)
Язык : Russian
Default : Да
Forced : Нет

Аудио #2
Идентификатор : 3
Формат : AC-3
Формат/Информация : Audio Coding 3
Расширение режима : CM (complete main)
Параметр Endianness формата : Big
Идентификатор кодека : A_AC3
Продолжительность : 1 ч. 34 м.
Вид битрейта : Постоянный
Битрейт : 384 Кбит/сек
Каналы : 6 каналов
Расположение каналов : Front: L C R, Side: L R, LFE
Частота : 48,0 КГц
Метод сжатия : С потерями
Размер потока : 261 Мбайт (3%)
Язык : Ukrainian
Default : Нет
Forced : Нет

Аудио #3
Идентификатор : 4
Формат : DTS
Формат/Информация : Digital Theater Systems
Режим : 16
Параметр Endianness формата : Big
Идентификатор кодека : A_DTS
Продолжительность : 1 ч. 34 м.
Вид битрейта : Постоянный
Битрейт : 1509 Кбит/сек
Каналы : 6 каналов
Расположение каналов : Front: L C R, Side: L R, LFE
Частота : 48,0 КГц
Битовая глубина : 24 бит
Метод сжатия : С потерями
Размер потока : 1024 Мбайт (12%)
Язык : English
Default : Нет
Forced : Нет

Текст #1
Идентификатор : 5
Формат : UTF-8
Идентификатор кодека : S_TEXT/UTF8
Идентификатор кодека/Информация : UTF-8 Plain Text
Язык : Ukrainian
Default : Нет
Forced : Нет

Текст #2
Идентификатор : 6
Формат : UTF-8
Идентификатор кодека : S_TEXT/UTF8
Идентификатор кодека/Информация : UTF-8 Plain Text
Язык : English
Default : Нет
Forced : Нет

Меню
00:00:00.000 : en:00:00:00.000
00:07:22.692 : en:00:07:22.692
00:11:36.779 : en:00:11:36.779
00:15:46.403 : en:00:15:46.403
00:20:02.242 : en:00:20:02.242
00:25:21.436 : en:00:25:21.436
00:26:47.063 : en:00:26:47.063
00:30:10.183 : en:00:30:10.183
00:34:45.791 : en:00:34:45.791
00:36:02.285 : en:00:36:02.285
00:37:45.304 : en:00:37:45.304
00:41:27.359 : en:00:41:27.359
00:43:35.612 : en:00:43:35.612
00:45:19.508 : en:00:45:19.508
00:46:51.850 : en:00:46:51.850
00:50:02.457 : en:00:50:02.457
00:51:34.341 : en:00:51:34.341
00:56:12.160 : en:00:56:12.160
01:00:03.683 : en:01:00:03.683
01:01:17.840 : en:01:01:17.840
01:03:50.367 : en:01:03:50.367
01:06:27.191 : en:01:06:27.191
01:11:15.771 : en:01:11:15.771
01:13:40.540 : en:01:13:40.540
01:15:38.658 : en:01:15:38.658
01:20:00.336 : en:01:20:00.336
01:23:57.198 : en:01:23:57.198
01:26:18.339 : en:01:26:18.339

Файл
Формат: MKV (x264)
Качество: BDRip 1080p
Видео: 9855 kb/s, 1920x1080
Аудио: Russian: AC3, 640 kb/s (6 ch) / Ukrainian: AC3, 384 kb/s (6 ch) / English: DTS, 1509 kb/s (6 ch)
Субтитры: Russian, English
Дополнительно: Сохранены оригинальные чаптеры
Размер: 8.19 GB
Аватара пользователя
CObP
Хранитель
 
Раздал: 273.33 ТБ
Скачал: 0 байт
Ратио: Seed.
Сообщения: 2094

Карма: 1102
Зарегистрирован: 11 дек 2010, 10:56
  • Торрент
Автор: CObP Хэш: ---
Добавлен: 30 окт 2015, 13:46 Приватный: Нет (DHT включён)
Статус: Vip аплоад
Размер: 8.19 ГБ (8 796 446 099 байт)
Изменил:
---
Скачали: 21 (Раздающих: 100%)
Причина:
---
Здоровье: 100%
Сидеров: 1176 Личеров: 11
Скорость раздачи: 0 байт/сек Скорость скачивания: 0 байт/сек
Последний сидер: 26 дней 2 часа 48 минут 53 секунды назад Последний личер: 1 год 4 месяца 14 дней 2 часа 56 минут 27 секунд назад
Для скачивания торрента необходимо зарегистрироваться или войти на трекер.

Вернуться в Полнометражные (зарубежные)

Кто сейчас на конференции

Сейчас эту тему просматривают: нет зарегистрированных пользователей и гости: 1

Ресурс не предоставляет электронные версии произведений, а занимается лишь коллекционированием и каталогизацией ссылок, присылаемых и публикуемых на форуме нашими читателями. Если вы являетесь правообладателем какого-либо представленного материала и не желаете чтобы ссылка на него находилась в нашем каталоге, свяжитесь с нами и мы незамедлительно удалим её. Файлы для обмена на трекере предоставлены пользователями сайта, и администрация не несёт ответственности за их содержание. Просьба не заливать файлы, защищенные авторскими правами, а также файлы нелегального содержания!
cron